<?xml version="1.0" standalone="no"?>
<!DOCTYPE svg PUBLIC "-//W3C//DTD SVG 1.1//EN" "http://www.w3.org/Graphics/SVG/1.1/DTD/svg11.dtd" >
<svg xmlns="http://www.w3.org/2000/svg" xmlns:xlink="http://www.w3.org/1999/xlink" version="1.1">
<metadata>
Created by FontForge 20170731 at Fri Aug 24 02:12:41 2018
 By Aleksey,,,
Friendly Schoolmates (c) 7NTypes. 2018. All Rights Reserved
</metadata>
<defs>
<font id="FriendlySchoolmates" horiz-adv-x="712" >
  <font-face 
    font-family="Friendly Schoolmates"
    font-weight="400"
    font-stretch="normal"
    units-per-em="2048"
    panose-1="2 0 5 0 0 0 0 0 0 0"
    ascent="1638"
    descent="-410"
    x-height="974"
    cap-height="1380"
    bbox="-200 -614.998 1858 1750"
    underline-thickness="150"
    underline-position="-442"
    unicode-range="U+001D-E30A"
  />
<missing-glyph horiz-adv-x="1024" 
 />
    <glyph glyph-name=".notdef" horiz-adv-x="1024" 
 />
    <glyph glyph-name=".null" horiz-adv-x="0" 
 />
    <glyph glyph-name=".null" horiz-adv-x="0" 
 />
    <glyph glyph-name="nonmarkingreturn" horiz-adv-x="508" 
 />
    <glyph glyph-name="space" unicode=" " horiz-adv-x="400" 
 />
    <glyph glyph-name="space" unicode="&#xa0;" horiz-adv-x="400" 
 />
    <glyph glyph-name="exclam" unicode="!" horiz-adv-x="447" 
d="M217 258q-69 0 -69 83q0 185 -42 585q-26 228 -26 301q0 173 153 173q134 0 134 -180q0 -135 -40 -428t-40 -458q0 -76 -70 -76zM223 -22q-110 0 -110 100t110 100t110 -100t-110 -100z" />
    <glyph glyph-name="quotedbl" unicode="&#x22;" horiz-adv-x="522" 
d="M113 741q-44 0 -44 46q0 102 -37 322q-22 125 -22 182q0 109 103 109q113 0 113 -113q0 -91 -30 -252t-30 -248q0 -46 -53 -46zM399 741q-44 0 -44 46q0 102 -37 322q-22 125 -22 182q0 109 103 109q113 0 113 -113q0 -91 -30 -252t-30 -248q0 -46 -53 -46z" />
    <glyph glyph-name="numbersign" unicode="#" horiz-adv-x="895" 
d="M431 739h154l146 375q33 85 88 85q34 0 34 -38q0 -29 -21 -82q-54 -136 -136 -340h127q71 0 71 -44t-71 -44h-163q-24 -61 -51 -128h127q71 0 71 -44t-71 -44h-163q-83 -206 -185 -459q-31 -76 -80 -76q-28 0 -28 32q0 24 16 67l170 436h-158q-83 -206 -185 -459
q-31 -76 -80 -76q-28 0 -28 32q0 24 16 67l170 436h-106q-64 0 -64 44t64 44h140l50 128h-103q-64 0 -64 44t64 44h138l146 375q33 85 88 85q34 0 34 -38q0 -29 -21 -82q-54 -136 -136 -340zM550 651h-155q-24 -61 -51 -128h156z" />
    <glyph glyph-name="dollar" unicode="$" horiz-adv-x="793" 
d="M397 -213q-45 0 -45 62v87q0 18 -10 28t-24 11q-108 6 -180 65q-81 65 -81 156q0 55 16 97t54 42q40 0 40 -47q0 -40 15 -85q36 -110 138 -110q82 0 123 53.5t41 140.5q0 46 -24.5 84.5t-64 75t-86.5 72.5q-60 46 -117.5 101t-96 125.5t-38.5 163.5q0 69 35.5 135.5
t116.5 111.5q41 22 95 33q23 5 35.5 19t12.5 40v79q0 60 45 60q44 0 44 -60v-76q0 -20 12 -36t35 -19q85 -13 145 -61q81 -66 81 -157q0 -55 -15.5 -97t-51.5 -42q-43 0 -43 47q0 40 -15 85t-49 77.5t-89 32.5q-51 0 -82 -20t-45.5 -52t-14.5 -66q0 -68 31.5 -120t80 -96
t106 -86t110 -90t87 -107.5t34.5 -138.5q0 -87 -46.5 -162.5t-138.5 -121.5q-43 -22 -96 -34q-17 -4 -26.5 -15.5t-9.5 -32.5v-90q0 -62 -44 -62z" />
    <glyph glyph-name="percent" unicode="%" horiz-adv-x="747" 
d="M110 -24q-33 0 -33 26q0 14 485 1157q26 60 77 60q32 0 32 -25q0 -14 -485 -1156q-26 -62 -76 -62zM213 939q38 0 58 25.5t20 65.5q0 43 -18.5 68t-55.5 25q-77 0 -77 -93q0 -39 18 -65t55 -26zM183 842q-82 0 -125.5 50.5t-43.5 128.5q0 73 45.5 126t141.5 53
q72 0 118 -43.5t46 -135.5q0 -83 -47.5 -131t-134.5 -48zM585 71q38 0 58 25.5t20 65.5q0 43 -18.5 68t-55.5 25q-77 0 -77 -93q0 -39 18 -65t55 -26zM555 -26q-82 0 -125.5 50.5t-43.5 128.5q0 73 45.5 126t141.5 53q72 0 118 -43.5t46 -135.5q0 -83 -47.5 -131t-134.5 -48
z" />
    <glyph glyph-name="ampersand" unicode="&#x26;" horiz-adv-x="932" 
d="M311 -16q-126 0 -195 62t-69 165q0 146 104 282q16 20 16 43q0 19 -10 40q-68 140 -68 266q0 184 87.5 271t235.5 87q111 0 169.5 -60t58.5 -167q0 -193 -209 -385q-21 -19 -21 -46q0 -16 9 -33q43 -83 106 -161q19 -24 37 -24q40 0 151 293q27 72 80 72q63 0 63 -70
q0 -21 -11 -48q-74 -184 -154 -310q-15 -24 -15 -44q0 -22 21 -36q90 -63 187 -86q79 -19 79 -63q0 -42 -58 -42q-14 0 -32 3q-146 22 -273 93q-13 7 -26 7q-16 0 -32 -13q-110 -96 -231 -96zM361 720q15 0 34 23q94 117 94 217q0 120 -65 120q-100 0 -100 -187
q0 -71 12 -139q5 -34 25 -34zM311 81q68 0 135 61q15 13 15 28q0 12 -12 23q-84 74 -167 182q-11 14 -22 14t-20 -16q-42 -77 -42 -149q0 -143 113 -143z" />
    <glyph glyph-name="quotesingle" unicode="'" horiz-adv-x="236" 
d="M113 741q-44 0 -44 46q0 102 -37 322q-22 125 -22 182q0 109 103 109q113 0 113 -113q0 -91 -30 -252t-30 -248q0 -46 -53 -46z" />
    <glyph glyph-name="parenleft" unicode="(" horiz-adv-x="434" 
d="M406 -199q-21 0 -50 32q-144 155 -221.5 361t-77.5 434t77.5 434t221.5 360q29 32 50 32q16 0 25.5 -12t9.5 -29q0 -22 -25 -70q-139 -263 -139 -715q0 -262 52 -483q30 -127 87 -233q25 -47 25 -69q0 -17 -9.5 -29.5t-25.5 -12.5z" />
    <glyph glyph-name="parenright" unicode=")" horiz-adv-x="474" 
d="M51 -199q-17 0 -26.5 12.5t-9.5 29.5q0 22 26 69q56 106 86 233q53 221 53 483q0 452 -140 715q-25 48 -25 70q0 17 9.5 29t26.5 12q20 0 50 -32q143 -154 220.5 -360t77.5 -434t-77.5 -434t-220.5 -361q-30 -32 -50 -32z" />
    <glyph glyph-name="asterisk" unicode="*" horiz-adv-x="208" 
d="M125 945q-44 0 -44 64q0 59 -33 59q-15 0 -37 -13q-30 -18 -51 -18q-22 0 -33 20q-6 10 -6 20q0 27 46 54q35 21 35 41t-35 40q-46 27 -46 54q0 10 6 20q11 20 33 20q21 0 51 -18q23 -13 39 -13q31 0 31 54q0 71 44 71t44 -71q0 -53 32 -53q17 0 43 15t44 15q22 0 34 -21
q6 -11 6 -21q0 -26 -38.5 -48t-38.5 -44t38.5 -44.5t38.5 -48.5q0 -10 -6 -21q-12 -21 -34 -21q-18 0 -43.5 14.5t-42.5 14.5q-33 0 -33 -57q0 -64 -44 -64z" />
    <glyph glyph-name="plus" unicode="+" horiz-adv-x="810" 
d="M405 262q-44 0 -44 86v172q0 23 -27 23h-168q-86 0 -86 44t86 44h168q27 0 27 28v161q0 92 44 92t44 -92v-161q0 -28 30 -28h159q92 0 92 -44t-92 -44h-159q-30 0 -30 -23v-172q0 -86 -44 -86z" />
    <glyph glyph-name="comma" unicode="," horiz-adv-x="320" 
d="M88 -482q-20 0 -29 9t-9 22q0 20 37 148.5t37 213.5q0 43 -42 86q-32 36 -32 81q0 100 110 100t110 -128q0 -119 -74 -348q-59 -184 -108 -184z" />
    <glyph glyph-name="hyphen" unicode="-" horiz-adv-x="650" 
d="M522 454h-399q-73 0 -73 44t73 44h399q78 0 78 -44t-78 -44z" />
    <glyph glyph-name="hyphen" unicode="&#xad;" horiz-adv-x="650" 
d="M522 454h-399q-73 0 -73 44t73 44h399q78 0 78 -44t-78 -44z" />
    <glyph glyph-name="period" unicode="." horiz-adv-x="320" 
d="M160 -22q-110 0 -110 100t110 100t110 -100t-110 -100z" />
    <glyph glyph-name="slash" unicode="/" horiz-adv-x="482" 
d="M8 -202q-28 0 -28 39q0 30 16 83l435 1376q33 105 88 105q34 0 34 -47q0 -36 -21 -101q-135 -418 -444 -1361q-31 -94 -80 -94z" />
    <glyph glyph-name="zero" unicode="0" 
d="M439 89q78 0 110 167q21 110 21 331q0 231 -36.5 366.5t-110.5 135.5q-153 0 -153 -502q0 -280 43 -389t126 -109zM384 -26q-347 0 -347 613q0 249 84 431t262 182q85 0 141.5 -36.5t89.5 -94.5t53 -190t20 -292t-19.5 -292.5t-52.5 -190t-89 -94t-142 -36.5z" />
    <glyph glyph-name="one" unicode="1" 
d="M454 -26q-123 0 -123 188v887l-141 -102q-50 -37 -81 -37q-20 0 -31 15q-9 10 -9 22q0 31 59 74l173 128q67 51 136 51q132 0 132 -201v-837q0 -188 -115 -188z" />
    <glyph glyph-name="two" unicode="2" 
d="M178 -60q-150 0 -150 99q0 88 117 259q51 75 114 176q156 255 156 423q0 34 -9 76.5t-35.5 74.5t-80.5 32q-137 0 -137 -196q0 -124 -43 -124q-71 0 -71 134q0 154 84.5 230t216.5 76q133 0 206 -46.5t102.5 -118.5t29.5 -149q0 -185 -162 -401q-70 -93 -141 -175
q-174 -199 -174 -228q0 -18 29 -18q216 5 368 52q12 4 25 4q55 0 55 -65q0 -7 -5 -19.5t-26 -21.5q-55 -23 -181 -48.5t-288 -25.5z" />
    <glyph glyph-name="three" unicode="3" 
d="M306 -16q-127 0 -180 54.5t-53 129.5q0 74 51 74q52 0 52 -74q0 -87 99 -87q129 0 129 173q0 59 -32 109t-127 103q-22 13 -22 36q0 29 25 46q175 121 175 349q0 34 -9 76.5t-36 74.5t-82 32q-139 0 -139 -196q0 -124 -45 -124q-71 0 -71 134q0 154 85.5 230t220.5 76
t209.5 -46.5t104.5 -118.5t30 -149q0 -235 -284 -352q-30 -12 -30 -23q0 -12 33 -26q212 -89 212 -244q0 -133 -96 -195t-220 -62z" />
    <glyph glyph-name="four" unicode="4" 
d="M377 339v619q-55 -67 -104 -210q-42 -121 -87 -355q-6 -33 -6 -53q0 -32 65 -33h98q34 0 34 32zM490 -26q-47 0 -80 25.5t-33 67.5v104q0 18 -7.5 26t-22.5 8q-91 0 -156 3q-159 4 -159 85q0 174 166 554q74 162 149 257.5t134 95.5q115 0 115 -131v-725q0 -19 7.5 -29.5
t19.5 -11.5q59 -7 59 -45q0 -36 -54 -44q-14 -2 -23 -11t-9 -29v-92q0 -58 -33 -83t-73 -25z" />
    <glyph glyph-name="five" unicode="5" 
d="M288 -16q-62 0 -115.5 29t-86 88t-32.5 150q0 32 17.5 63.5t51.5 31.5t34 -50q0 -120 53 -173q26 -28 70 -28q48 0 78.5 33.5t45.5 84t15 101.5q0 269 -252 369q-71 29 -71 78q0 76 54 253q57 186 230 186q131 0 227.5 -38t96.5 -89q0 -35 -38 -35q-24 0 -45 6
q-117 35 -223 35q-91 0 -113 -75q-40 -135 -40 -168q0 -30 44 -44q351 -110 351 -447q0 -147 -84 -254t-268 -107z" />
    <glyph glyph-name="six" unicode="6" 
d="M374 -60q-135 0 -209.5 46.5t-104.5 118.5t-30 149q0 379 401 823q112 123 197 123q45 0 45 -33q0 -40 -64 -131q-100 -143 -168 -276q-9 -18 -9 -36q0 -31 29 -60q219 -223 219 -418q0 -154 -85.5 -230t-220.5 -76zM425 60q139 0 139 196q0 147 -149 308q-18 18 -33 18
q-20 0 -30 -30q-54 -162 -54 -309q0 -34 9 -76.5t36 -74.5t82 -32z" />
    <glyph glyph-name="seven" unicode="7" 
d="M522 1058q0 18 -30 18q-216 -5 -368 -52q-12 -4 -25 -4q-55 0 -55 65q0 7 5 19.5t26 21.5q55 23 181 48.5t288 25.5q150 0 150 -99q0 -88 -154 -405t-154 -534q0 -188 -111 -188q-118 0 -118 188q0 223 182.5 545t182.5 351z" />
    <glyph glyph-name="eight" unicode="8" 
d="M336 -16q-136 0 -220 62t-84 195q0 182 210 350q-168 147 -168 323q0 112 72.5 199t230.5 87q131 0 204.5 -75t73.5 -182q0 -179 -211 -308q24 -24 51 -48q187 -163 187 -341q0 -114 -91.5 -188t-254.5 -74zM336 81q48 0 79.5 50.5t31.5 155.5q0 109 -119 228
q-105 -126 -105 -261q0 -173 113 -173zM384 704q80 103 80 226q0 150 -75 150q-44 0 -62 -44t-18 -139q0 -94 75 -193z" />
    <glyph glyph-name="nine" unicode="9" 
d="M354 1200q135 0 209.5 -46.5t104.5 -118.5t30 -149q0 -379 -401 -823q-112 -123 -197 -123q-45 0 -45 33q0 40 64 131q100 143 168 276q9 18 9 36q0 31 -29 60q-219 223 -219 418q0 154 85.5 230t220.5 76zM303 1080q-139 0 -139 -196q0 -147 149 -308q18 -18 33 -18
q20 0 30 30q54 162 54 309q0 34 -9 76.5t-36 74.5t-82 32z" />
    <glyph glyph-name="colon" unicode=":" horiz-adv-x="380" 
d="M190 -22q-110 0 -110 100t110 100t110 -100t-110 -100zM190 696q-110 0 -110 100t110 100t110 -100t-110 -100z" />
    <glyph glyph-name="semicolon" unicode=";" horiz-adv-x="380" 
d="M190 696q-110 0 -110 100t110 100t110 -100t-110 -100zM118 -482q-20 0 -29 9t-9 22q0 20 37 148.5t37 213.5q0 43 -41 86q-33 36 -33 81q0 100 110 100t110 -128q0 -119 -73 -348q-60 -184 -109 -184z" />
    <glyph glyph-name="semicolon" unicode="&#x37e;" horiz-adv-x="380" 
d="M190 696q-110 0 -110 100t110 100t110 -100t-110 -100zM118 -482q-20 0 -29 9t-9 22q0 20 37 148.5t37 213.5q0 43 -41 86q-33 36 -33 81q0 100 110 100t110 -128q0 -119 -73 -348q-60 -184 -109 -184z" />
    <glyph glyph-name="less" unicode="&#x3c;" horiz-adv-x="810" 
d="M688 263q-26 0 -69 23l-491 252q-48 25 -48 50t49 50l490 252q43 23 70 23q24 0 35 -18q6 -9 6 -17q0 -40 -63 -71l-367 -181q-37 -18 -37 -37q0 -18 37 -37l367 -182q63 -31 63 -71q0 -9 -6 -17q-11 -19 -36 -19z" />
    <glyph glyph-name="equal" unicode="=" horiz-adv-x="810" 
d="M638 655h-472q-86 0 -86 44t86 44h472q92 0 92 -44t-92 -44zM638 433h-472q-86 0 -86 44t86 44h472q92 0 92 -44t-92 -44z" />
    <glyph glyph-name="greater" unicode="&#x3e;" horiz-adv-x="810" 
d="M122 263q-25 0 -36 19q-6 8 -6 17q0 40 63 71l367 182q37 19 37 37q0 19 -37 37l-367 181q-63 31 -63 71q0 8 6 17q11 18 35 18q27 0 70 -23l490 -252q49 -25 49 -50t-48 -50l-491 -252q-43 -23 -69 -23z" />
    <glyph glyph-name="question" unicode="?" horiz-adv-x="800" 
d="M349 -22q-110 0 -110 100t110 100t110 -100t-110 -100zM342 258q-62 0 -68 83q-5 56 -5 104q0 249 123 379q106 113 106 260q0 78 -42.5 126t-120.5 48q-119 0 -159 -139q-17 -57 -17 -106q0 -59 -39 -59q-70 0 -70 174q0 114 85.5 196.5t242.5 82.5q188 0 280 -89.5
t92 -225.5q0 -217 -145.5 -359.5t-169 -238t-23.5 -160.5q0 -76 -70 -76z" />
    <glyph glyph-name="at" unicode="@" horiz-adv-x="1402" 
d="M743 -296q-184 0 -319.5 59.5t-223.5 159.5t-129 222t-41 248q0 137 49 270q46 124 135 225q193 218 514 218q329 0 485 -165q126 -135 126 -341q0 -215 -112 -387q-49 -76 -109 -121t-124 -45q-194 0 -208 259q-4 75 -10 75t-17 -36q-33 -103 -66 -159
q-68 -115 -180 -115q-90 0 -138 88t-48 240q0 144 75.5 239.5t177.5 95.5q84 0 150 -51q22 -16 36 -16q18 0 30 22q14 26 29 41q26 26 90 26q115 0 115 -85q0 -24 -6 -89q-16 -171 -16 -260q0 -148 44 -148q41 0 82 46q47 54 80 149q31 91 31 194q0 166 -86 282
q-124 166 -415 166q-162 0 -280 -66t-191 -174t-92.5 -207t-19.5 -170q0 -198 105 -354q72 -108 195.5 -174.5t299.5 -66.5q257 0 469 112q27 15 56 29t50 14q29 0 29 -21q0 -33 -34 -61q-204 -168 -588 -168zM594 195q24 0 41.5 29.5t32.5 78.5t30 108q12 47 26 95
q8 27 8 51q0 29 -15 43q-35 33 -84 33q-38 0 -61.5 -41.5t-34.5 -103t-11 -122.5q0 -67 18.5 -119t49.5 -52z" />
    <glyph glyph-name="A" unicode="A" horiz-adv-x="1090" 
d="M134 -166q-74 0 -74 82q0 44 10 164q44 493 67 621q53 300 146 484q109 215 272 215q356 0 418 -696q17 -192 17 -513q0 -332 -145 -332q-130 0 -131 297q-1 131 -79 131h-327q-54 0 -60 -112q-16 -341 -114 -341zM367 378q207 0 274.5 9.5t67.5 73.5q0 44 -11 186
q-47 616 -184 616q-80 0 -138 -179q-80 -249 -105 -540q-5 -65 -5 -74q0 -92 101 -92z" />
    <glyph glyph-name="B" unicode="B" horiz-adv-x="1147" 
d="M261 -159q-165 0 -165 568q0 255 28 625q13 168 44 246q40 103 154 103q84 0 96 -122q5 -57 21 -57q13 0 34 22q156 174 355 174q105 0 170 -47q115 -85 115 -292q0 -239 -192 -427q-70 -69 -155 -123q-31 -19 -31 -33q0 -15 37 -27q105 -34 170 -89q116 -96 116 -216
q0 -151 -107.5 -237.5t-264.5 -86.5q-156 0 -290 70q-13 7 -24 7q-15 0 -29 -18q-31 -40 -82 -40zM427 473q14 0 34 7q117 40 213 130q81 76 130 183.5t49 240.5q0 223 -119 223q-157 0 -256 -204q-60 -124 -73 -251q-16 -148 -16 -291q0 -23 18 -33q8 -5 20 -5zM582 -65
q92 0 151 56t59 140q0 74 -64 148q-37 42 -102 75q-48 25 -118 25q-73 0 -96.5 -22.5t-23.5 -60.5v-207q0 -154 194 -154z" />
    <glyph glyph-name="C" unicode="C" horiz-adv-x="978" 
d="M597 -158q-147 0 -271 75.5t-199 225.5t-75 374q0 252 70 447.5t201 307t315 111.5q103 0 166.5 -48t92.5 -118.5t29 -138.5q0 -69 -15 -122.5t-52 -53.5q-42 0 -42 61q0 90 -35 172q-42 99 -118 99q-74 0 -143 -74.5t-113 -228t-44 -392.5q0 -55 8 -127.5t28 -146.5
t54.5 -137.5t87.5 -102.5t127 -39q70 0 127.5 35.5t92.5 90.5q18 27 49 27q40 0 40 -40q0 -12 -7 -27q-28 -59 -83.5 -111.5t-130 -85.5t-160.5 -33z" />
    <glyph glyph-name="D" unicode="D" horiz-adv-x="1383" 
d="M579 -41q121 0 208 71t140 187q83 183 83 421q0 66 -9 163q-8 88 -46 193q-48 130 -127 205q-76 71 -180 71q-84 0 -175 -73q-85 -68 -85 -763v-273q0 -106 55 -154t136 -48zM616 -178q-85 0 -149 40t-79 40q-29 0 -49 -25q-30 -36 -78 -36q-165 0 -165 568q0 255 28 625
q13 168 44 246q40 103 140 103q62 0 95 -63q7 -14 21 -14q16 0 105 47t206 47q148 0 258.5 -65.5t182.5 -175.5q133 -205 133 -494q0 -162 -44 -303q-51 -160 -139 -282q-187 -258 -510 -258z" />
    <glyph glyph-name="E" unicode="E" horiz-adv-x="880" 
d="M463 -170q-332 0 -352 319q-9 138 -9 271q0 77 5 218q18 515 76 632q37 76 116 96q69 17 216 17q164 0 288 -41q103 -35 103 -76q0 -12 -6 -24q-15 -30 -48 -30q-11 0 -50 16q-97 39 -228 39q-87 0 -113.5 -51.5t-36.5 -173.5q-26 -297 -26 -498q0 -62 115 -62
q142 0 221 30q19 7 34 7q31 0 44 -34q4 -10 4 -20q0 -36 -35 -49q-114 -42 -269 -42q-116 0 -116 -69q0 -133 14 -225q8 -58 36.5 -94.5t93.5 -36.5q163 0 277 52q24 11 35 11q33 0 48 -30q6 -12 6 -24q0 -32 -29 -48q-146 -80 -414 -80z" />
    <glyph glyph-name="F" unicode="F" horiz-adv-x="852" 
d="M263 -159q-165 0 -165 568q0 398 23 616q18 168 103.5 263t284.5 95q214 0 360 -70q30 -15 30 -48q0 -11 -6 -23q-14 -30 -47 -30q-12 0 -33 10q-93 45 -211 45q-211 0 -211 -312v-419q0 -56 67 -56q114 0 199 19.5t109 19.5q43 0 43 -45t-34 -58q-115 -42 -269 -42
q-116 0 -116 -67v-218q0 -248 -127 -248z" />
    <glyph glyph-name="G" unicode="G" horiz-adv-x="1063" 
d="M596 -158q-147 0 -270.5 75.5t-198.5 225.5t-75 374q0 252 70 447.5t201 307t315 111.5q102 0 166 -48t93 -118.5t29 -138.5q0 -69 -15.5 -120.5t-51.5 -55.5q-42 0 -42 61q0 90 -35 173q-42 98 -119 98q-73 0 -142 -74.5t-113 -228t-44 -392.5q0 -51 7 -122t24.5 -145
t47 -137.5t73.5 -103.5t105 -40q75 0 126 53q74 77 106 221q16 74 16 118q0 23 -7 37q-10 20 -64 20q-76 0 -153 -23q-22 -7 -46 -7q-32 0 -32 51q0 93 247 93q193 0 193 -135q0 -230 -94 -395q-103 -182 -317 -182z" />
    <glyph glyph-name="H" unicode="H" horiz-adv-x="1058" 
d="M781 873q3 177 8 376q3 131 90 131q61 0 61 -97q0 -109 -4 -197q-5 -107 -8 -233q-4 -183 -4 -408l2 -466q0 -133 -74 -133q-63 0 -67 126q-7 188 -7 461q0 18 -21 18q-9 0 -35 -6q-76 -17 -184 -17h-103q-47 0 -47 -48v-291q0 -248 -127 -248q-165 0 -165 568
q0 255 28 625q13 168 44 246q40 100 154 100q84 0 95 -119q6 -61 6 -120q0 -58 -5 -115q-28 -297 -28 -421q0 -86 134 -86q117 0 210 25q44 11 44 77q1 120 3 252z" />
    <glyph glyph-name="I" unicode="I" horiz-adv-x="527" 
d="M261 -159q-165 0 -165 568q0 255 28 625q13 168 44 246q40 100 154 100q84 0 95 -119q6 -61 6 -120q0 -58 -6 -115q-29 -331 -29 -592v-345.5t-127 -247.5z" />
    <glyph glyph-name="J" unicode="J" horiz-adv-x="810" 
d="M284 -158q-85 0 -144.5 41.5t-90.5 109.5t-31 149q0 207 67 207q42 0 42 -69.5t9 -123.5q26 -168 122 -168q157 0 157 597q0 126 -6 259.5t-18.5 246.5t-12.5 186q0 103 119 103q63 0 99 -26q65 -49 83 -183q8 -61 14 -137q17 -206 17 -365q0 -57 -3 -153t-25 -222
t-69.5 -228t-127.5 -163t-201 -61z" />
    <glyph glyph-name="K" unicode="K" horiz-adv-x="956" 
d="M933 -157q-169 0 -328.5 324.5t-194.5 324.5q-22 0 -22 -87v-299q0 -248 -127 -248q-165 0 -165 568q0 255 28 625q13 168 47 245q37 84 151 84q84 0 95 -102q6 -61 6 -120q0 -58 -5 -115q-18 -201 -18 -241q0 -46 18 -46q21 0 46 33q166 222 219 296q81 115 141 226
q35 65 81 65q33 0 50 -32q7 -14 7 -32q0 -30 -22 -72q-65 -128 -160 -259q-71 -98 -173 -232q-39 -51 -39 -113q0 -49 29 -97q89 -147 253 -368q146 -196 146 -262t-63 -66z" />
    <glyph glyph-name="L" unicode="L" horiz-adv-x="771" 
d="M458 -170q-332 0 -352 319q-8 124 -8 299q0 287 27 586q13 168 44 246q40 100 154 100q84 0 95 -119q6 -61 6 -120q0 -58 -6 -115q-28 -315 -28 -478l1 -243q0 -133 14 -225q8 -58 36.5 -94.5t93.5 -36.5q163 0 277 52q24 11 35 11q33 0 48 -30q6 -12 6 -24
q0 -32 -29 -48q-146 -80 -414 -80z" />
    <glyph glyph-name="M" unicode="M" horiz-adv-x="1353" 
d="M1131 -159q-92 0 -92 158q0 118 7 233q14 234 14 532q0 211 -29 211q-18 0 -107 -413q-76 -349 -232 -349q-141 0 -200.5 389.5t-93.5 389.5q-20 0 -25 -79q-7 -115 -7 -322q0 -259 1 -510q0 -240 -114 -240q-151 0 -151 568q0 76 2.5 205t25.5 425q28 361 198 361
q197 0 336 -845q13 -82 34 -82q51 0 189 702q37 185 154 185q198 0 198 -854q0 -234 -10 -469q-8 -196 -98 -196z" />
    <glyph glyph-name="N" unicode="N" horiz-adv-x="1125" 
d="M823 -168q-94 0 -152 132q-115 258 -269 802q-35 123 -51 123q-12 0 -12 -241q0 -51 8 -254.5t8 -304.5q0 -248 -113 -248q-146 0 -146 568q0 301 34 691q10 108 30 189q24 94 103 94q121 0 174 -181q288 -990 315 -990q26 0 26 113q0 214 -38 701q-5 57 -5 115
q0 59 5 120q10 122 84 122q102 0 138 -103q47 -135 47 -550q0 -686 -79 -824q-42 -74 -107 -74z" />
    <glyph glyph-name="O" unicode="O" horiz-adv-x="1127" 
d="M560 -158q-147 0 -259.5 75.5t-176.5 225.5t-64 374q0 252 64.5 447.5t190 307t309.5 111.5q225 0 331 -243q88 -202 88 -507q0 -334 -108 -547q-123 -244 -375 -244zM611 -14q137 0 219 178q36 78 56 167q37 163 37 302q0 216 -43.5 348t-106.5 192.5t-123 60.5
q-74 0 -137.5 -81t-102 -236.5t-38.5 -415.5q0 -515 239 -515z" />
    <glyph glyph-name="P" unicode="P" horiz-adv-x="1110" 
d="M261 -159q-165 0 -165 568q0 255 28 625q13 168 44 246q40 103 154 103q84 0 95 -122q5 -55 22 -55q11 0 30 20q155 162 354 162q106 0 171 -48q114 -84 114 -279q0 -126 -52 -234q-101 -207 -334 -340q-134 -76 -269 -107q-33 -7 -49 -22.5t-16 -46.5v-222
q0 -248 -127 -248zM430 476q14 0 31 6q115 40 209 128q81 76 130 183.5t49 240.5q0 44 -10.5 96t-36.5 89.5t-73 37.5q-156 0 -255 -204q-50 -102 -64 -206q-21 -156 -21 -325q0 -46 41 -46z" />
    <glyph glyph-name="Q" unicode="Q" horiz-adv-x="1133" 
d="M611 -14q83 0 83 38q0 18 -14 40q-104 167 -104 219q0 11 4 20q11 26 41 26q32 0 68 -42q52 -61 95 -115q15 -19 28 -19q14 0 24 22q31 71 50 156q37 163 37 302q0 216 -43.5 348t-106.5 192.5t-123 60.5q-74 0 -137.5 -81t-102 -236.5t-38.5 -415.5q0 -515 239 -515z
M977 -252q-91 0 -178 119q-14 19 -32 19q-14 0 -32 -8q-78 -36 -175 -36q-147 0 -259.5 75.5t-176.5 225.5t-64 374q0 252 64.5 447.5t190 307t309.5 111.5q225 0 331 -243q88 -202 88 -507q0 -355 -118 -566q-11 -20 -11 -41q0 -22 15 -44q97 -136 97 -183q0 -51 -49 -51z
" />
    <glyph glyph-name="R" unicode="R" horiz-adv-x="1130" 
d="M430 476q14 0 31 6q115 40 209 128q81 76 130 183.5t49 240.5q0 44 -10.5 96t-36.5 89.5t-73 37.5q-156 0 -255 -204q-50 -102 -64 -206q-21 -156 -21 -325q0 -46 41 -46zM261 -159q-165 0 -165 568q0 255 28 625q13 168 44 246q40 103 154 103q84 0 95 -122
q5 -55 22 -55q11 0 30 20q155 162 354 162q106 0 171 -48q114 -84 114 -279q0 -126 -52 -234q-86 -177 -270 -300q-29 -19 -29 -43q0 -30 124 -184q184 -229 184 -307q0 -66 -63 -66q-119 0 -233 162q-48 68 -106 172l-71 126q-12 20 -35 20q-12 0 -105 -25
q-32 -9 -48 -24.5t-16 -46.5v-222q0 -248 -127 -248z" />
    <glyph glyph-name="S" unicode="S" horiz-adv-x="857" 
d="M398 -134q-169 0 -249.5 92.5t-80.5 206.5q0 69 16 122t53 53q40 0 40 -60q0 -49 15 -116t58 -108t115 -41t112 48.5t40 136.5q0 175 -185 351q-63 59 -123.5 128t-100.5 157t-40 206q0 86 46.5 170t138 139.5t227.5 55.5q127 0 207.5 -82.5t80.5 -196.5
q0 -69 -15.5 -121.5t-54.5 -52.5t-39 59q0 49 -16 106q-41 139 -160 139q-50 0 -87 -25.5t-56.5 -65.5t-19.5 -83q0 -85 32.5 -150.5t84 -120.5t109.5 -107q245 -216 245 -481q0 -151 -107.5 -255t-285.5 -104z" />
    <glyph glyph-name="T" unicode="T" horiz-adv-x="765" 
d="M409 -138q-165 0 -165 568q0 235 28 605q7 93 20 158q4 20 4 35q0 41 -38 41q-14 0 -34 -5q-62 -15 -122 -41q-24 -11 -43 -11q-15 0 -26 7q-23 14 -23 39q0 52 43 71q160 74 338 80q31 1 63 1q222 0 385 -69q46 -20 46 -53q0 -39 -12 -52t-32 -13q-23 0 -45 9
q-95 41 -152 41q-74 0 -91 -288.5t-17 -529.5v-345q0 -248 -127 -248z" />
    <glyph glyph-name="U" unicode="U" horiz-adv-x="1173" 
d="M588 -159q-380 0 -470 448q-32 158 -32 382q0 137 18 380q13 168 44 246q40 103 154 103q84 0 95 -122q6 -61 6 -120q0 -58 -5 -115q-13 -150 -13 -343q0 -294 47 -474q61 -237 206 -237q71 0 119 59q137 168 137 756q0 134 -8.5 260.5t-8.5 252.5q0 83 83 83
q78 0 86 -85q27 -276 27 -534q0 -491 -138 -733q-118 -207 -347 -207z" />
    <glyph glyph-name="V" unicode="V" horiz-adv-x="1071" 
d="M557 -159q-197 0 -317 285q-101 238 -138 603q-20 194 -20 363q0 308 151 308q142 0 142 -275q0 -116 10 -288q18 -304 62 -525q51 -259 129 -259q39 0 84.5 120t86.5 310t67.5 410.5t26.5 422.5q0 94 92 94q84 0 84 -86q0 -287 -50 -620q-54 -359 -153 -596
q-112 -267 -257 -267z" />
    <glyph glyph-name="W" unicode="W" horiz-adv-x="1615" 
d="M1131 -159q-90 0 -155 56q-107 91 -164 298q-9 31 -19 31q-9 0 -20 -36q-100 -313 -250 -313q-107 0 -182 73q-141 135 -202 459q-49 258 -49 572q0 161 7 267q11 152 147 152q145 0 145 -169l-1 -376q0 -245 22 -429q40 -323 132 -323q44 0 88.5 163.5t74 413
t29.5 508.5q0 89 41.5 130t104.5 41q82 0 115.5 -40.5t39.5 -103.5q3 -32 3 -74q-6 -292 -6 -421q0 -248 16 -405q26 -248 102 -248q52 0 102.5 192t84 479.5t33.5 573.5q0 98 89 98q88 0 88 -90q0 -319 -39 -634q-45 -365 -131 -587q-100 -258 -246 -258z" />
    <glyph glyph-name="X" unicode="X" horiz-adv-x="998" 
d="M132 -202q-24 0 -48 13q-52 27 -52 109q0 147 170 471q59 113 115 217q18 33 18 67q0 4 -1 25.5t-24 59.5q-235 391 -235 570q0 70 75 70q65 0 102 -61q111 -181 204 -339q21 -36 42 -36q20 0 38 32q52 87 101 165q90 142 153 197q49 42 103 42q40 0 83.5 -23t43.5 -74
q0 -33 -18 -77q-47 -115 -109 -209q-207 -319 -207 -382q0 -37 19 -73q249 -459 249 -591q0 -70 -75 -70q-65 0 -95 65q-62 131 -225 396q-11 18 -22 18t-21 -19l-204 -390q-91 -173 -180 -173z" />
    <glyph glyph-name="Y" unicode="Y" horiz-adv-x="1135" 
d="M497 -210q-207 0 -279 139q-36 69 -36 146q0 111 72 111q42 0 42 -67q0 -82 46 -136.5t130 -54.5q242 0 263 398q4 90 4 147q0 32 -8 32q-10 0 -32 -32q-96 -142 -266 -142q-210 0 -291 187q-60 138 -60 372q0 220 15 379q11 111 146 111q145 0 145 -122q0 -9 -11 -99
q-25 -195 -25 -446q0 -244 131 -244q112 0 169 132q60 141 60 299q0 57 -5 170.5t-5 176.5q0 137 120 137q114 0 154 -98q31 -74 45 -256.5t14 -479.5q0 -369 -132 -564.5t-406 -195.5z" />
    <glyph glyph-name="Z" unicode="Z" horiz-adv-x="899" 
d="M419 -143q-403 0 -403 171q0 106 243 469q80 119 156 253q228 398 228 475q0 55 -87 55q-244 0 -408 -53q-19 -6 -42 -6q-35 0 -35 35q0 51 77 72q49 13 126 30q120 25 275 25q374 0 374 -169q0 -145 -488 -943q-123 -200 -123 -246q0 -45 100 -45q243 0 408 53
q12 4 24 4q53 0 53 -65q0 -7 -5 -19.5t-25 -21.5q-52 -23 -172.5 -48.5t-275.5 -25.5z" />
    <glyph glyph-name="bracketleft" unicode="[" horiz-adv-x="542" 
d="M118 -147.5q-31 51.5 -35 140.5q-13 266 -13 420q0 281 10 467q14 264 56 458q12 56 52 81t127 25h79q78 0 78 -44t-78 -44h-50q-27 0 -34.5 -8t-9.5 -25q-21 -170 -26 -407q-7 -281 -7 -581q0 -208 6 -355q2 -49 16.5 -70t53.5 -21h51q78 0 78 -44t-78 -44h-153
q-92 0 -123 51.5z" />
    <glyph glyph-name="backslash" unicode="\" horiz-adv-x="483" 
d="M525 -202q-49 0 -80 94q-309 943 -444 1361q-21 65 -21 101q0 47 34 47q55 0 88 -105l435 -1376q16 -53 16 -83q0 -39 -28 -39z" />
    <glyph glyph-name="bracketright" unicode="]" horiz-adv-x="542" 
d="M424 1392.5q31 -51.5 35 -140.5q13 -266 13 -420q0 -281 -10 -467q-14 -264 -56 -458q-12 -56 -52 -81t-127 -25h-79q-78 0 -78 44t78 44h50q27 0 34.5 8t9.5 25q21 170 26 407q7 281 7 581q0 208 -6 355q-2 49 -16.5 70t-53.5 21h-51q-78 0 -78 44t78 44h153
q92 0 123 -51.5z" />
    <glyph glyph-name="asciicircum" unicode="^" horiz-adv-x="786" 
d="M679 823q-34 0 -83 58l-152 179q-25 30 -51 30q-25 0 -51 -30l-152 -179q-49 -58 -83 -58q-37 0 -37 37q0 29 37 77l130 171q51 67 118 86q20 6 38 6t38 -6q67 -19 118 -86l130 -171q37 -48 37 -77q0 -37 -37 -37z" />
    <glyph glyph-name="underscore" unicode="_" horiz-adv-x="790" 
d="M628 -200h-472q-86 0 -86 44t86 44h472q92 0 92 -44t-92 -44z" />
    <glyph glyph-name="grave" unicode="`" horiz-adv-x="412" 
d="M300 1100q-30 0 -130 69t-100 115q0 26 16 46t46 20q76 0 187 -157q23 -33 23 -54q0 -39 -42 -39z" />
    <glyph glyph-name="a" unicode="a" horiz-adv-x="860" 
d="M723 -96q-161 0 -199 303q-8 67 -11 171q-1 43 -8 43q-10 0 -21 -44.5t-26 -92.5q-32 -103 -82.5 -166t-133.5 -63q-81 0 -133.5 97.5t-52.5 317.5q0 211 64.5 348t188.5 137q88 0 154 -78q16 -18 29 -18q20 0 36 39q35 88 116 88q115 0 115 -122q0 -33 -7 -131
q-15 -233 -15 -407q0 -208 62 -311q15 -25 15 -44q0 -25 -21 -41q-33 -26 -70 -26zM323 233q25 0 43.5 40t34.5 107t32 150q12 62 26 127q6 29 6 52q-1 24 -10 39q-37 60 -93 60q-38 0 -61.5 -59t-34.5 -148t-11 -179q0 -189 68 -189z" />
    <glyph glyph-name="b" unicode="b" horiz-adv-x="871" 
d="M450 218q62 0 108 84.5t46 253.5q0 259 -61 259q-70 0 -149 -177q-42 -91 -42 -188q0 -232 98 -232zM258 10q-61 0 -92 33q-76 78 -76 694q0 340 62 566q68 256 159 256q83 0 83 -132q0 -53 -14 -120q-25 -120 -29.5 -253.5t-5.5 -250.5q0 -41 13 -41q10 0 27 31
q87 149 199 149q84 0 136 -50.5t69.5 -134.5t17.5 -181q0 -180 -50 -285q-30 -62 -80 -106q-86 -77 -173 -77q-40 0 -70 6t-41 6q-20 0 -31 -30q-30 -80 -104 -80z" />
    <glyph glyph-name="c" unicode="c" horiz-adv-x="662" 
d="M361 -50q-125 0 -217 124t-92 361q0 269 95 417q89 134 229 134q77 0 132 -57t55 -163q0 -45 -18 -88.5t-51 -43.5q-15 0 -23.5 13.5t-8.5 55.5q0 68 -21 96t-45 28q-42 0 -69 -62q-48 -114 -48 -248q0 -240 37 -324t109 -84q64 0 115 79.5t72 79.5q17 0 28.5 -13
t11.5 -32q0 -90 -77.5 -181.5t-213.5 -91.5z" />
    <glyph glyph-name="d" unicode="d" horiz-adv-x="840" 
d="M293 220q50 0 100 129q68 172 68 252q0 51 -25 87q-36 54 -88 54q-38 0 -61.5 -59.5t-34 -148.5t-10.5 -178q0 -65 15 -100.5t36 -35.5zM688 -183q-55 0 -106.5 55.5t-84.5 186.5q-14 53 -22 122q-5 48 -18 48q-10 0 -25 -27q-87 -156 -203 -156q-35 0 -79 28.5
t-76 105.5t-32 224q0 206 77 348q73 135 176 135q80 0 147 -70q13 -13 20 -13q8 0 9 23q9 190 37 359q31 187 73.5 300.5t107.5 113.5q45 0 64 -49q14 -34 14 -78q0 -30 -7 -65q-60 -324 -60 -881q0 -470 78 -576q22 -29 22 -58q0 -39 -44 -60q-33 -16 -68 -16z" />
    <glyph glyph-name="e" unicode="e" horiz-adv-x="668" 
d="M296 541q115 0 154 108q16 44 16 83q0 104 -61 104q-74 0 -110 -125q-23 -82 -23 -141q0 -29 24 -29zM341 -30q-75 0 -142 53t-109 160.5t-42 239.5q0 140 38 269.5t117.5 212.5t171.5 83q74 0 116.5 -31t63.5 -82.5t21 -112.5q0 -92 -31 -166t-93 -118q-55 -39 -159 -43
q-24 -1 -24 -27q0 -113 33 -199q37 -93 99 -93q52 0 95 46q35 38 77 105q19 31 40 31q37 0 37 -40q0 -44 -41 -112q-105 -176 -268 -176z" />
    <glyph glyph-name="f" unicode="f" horiz-adv-x="525" 
d="M243 -101q-62 0 -89 83q-53 162 -53 729q0 46 3.5 91t3.5 66q0 14 -7 14q-9 0 -46 -26q-7 -5 -16 -5q-21 0 -31 24q-4 10 -4 22q0 25 19 39q30 22 61 38q39 20 45 62q46 336 152 482q59 82 146 82q83 0 119.5 -73t36.5 -160q0 -81 -48 -81t-48 71q0 75 -24 75
q-50 0 -71 -170.5t-21 -237.5q0 -26 28 -37q40 -15 79 -40q21 -14 21 -40q0 -10 -4 -20q-10 -26 -32 -26q-8 0 -17 5q-53 32 -69 32q-17 0 -17 -28q0 -266 15 -536q11 -205 11 -240q0 -95 -38 -145t-105 -50z" />
    <glyph glyph-name="g" unicode="g" horiz-adv-x="887" 
d="M322 233q24 0 43.5 43t37 112.5t39.5 172t22 129.5q0 42 -19 69q-36 49 -85 49q-38 0 -61 -59t-34 -148t-11 -179q0 -189 68 -189zM420 -600q-233 0 -233 326q0 83 49 83q48 0 48 -73q0 -180 92 -180q110 0 146 341q9 88 9 196q0 105 -10 320q-3 66 -12 66t-24 -64
q-28 -115 -59 -192q-69 -168 -185 -168q-90 0 -138.5 97.5t-48.5 317.5q0 207 76 348q74 137 178 137q78 0 143 -68q20 -20 30 -20q15 0 19 41q8 74 32 113t71 39q123 0 166 -404q22 -213 22 -384q0 -346 -87 -591q-99 -281 -284 -281z" />
    <glyph glyph-name="h" unicode="h" horiz-adv-x="946" 
d="M837 -67q-171 0 -197 200q-11 86 -11 204q0 104 8 204q8 89 8 190q0 77 -29 77q-30 0 -70.5 -128.5t-76.5 -297.5q-23 -111 -50 -218q-42 -162 -104 -180q-29 -9 -62 -9q-78 0 -117 92q-44 103 -44 400q0 117 15 378t94 478q65 177 154 177q77 0 77 -128q0 -42 -26 -188
q-32 -181 -45.5 -406.5t-13.5 -310.5q0 -101 18 -101q13 0 22 51q98 549 282 549q139 0 167 -178q14 -85 14 -195q0 -102 -4 -200q-3 -79 -3 -154q0 -129 44 -221q9 -20 9 -37q0 -21 -15 -34.5t-44 -13.5z" />
    <glyph glyph-name="i" unicode="i" horiz-adv-x="425" 
d="M275 -50q-137 0 -176 208q-23 126 -23 318q0 178 12 313q16 171 106 171q47 0 83 -39.5t36 -115.5q0 -40 -6 -105q-17 -178 -17 -312q0 -183 45 -315q11 -32 11 -58q0 -65 -71 -65zM237 1100q-110 0 -110 100t110 100t110 -100t-110 -100z" />
    <glyph glyph-name="j" unicode="j" horiz-adv-x="468" 
d="M160 1100q-110 0 -110 100t110 100t110 -100t-110 -100zM40 -600q-83 0 -119.5 73t-36.5 190q0 101 48 101t48 -91q0 -105 24 -105q50 0 78 222q26 208 26 420q0 100 -18 356q-9 135 -9 170q0 95 38 145t105 50q62 0 89 -83q48 -148 53 -520q0 -113 -13 -246
q-43 -429 -167 -600q-59 -82 -146 -82z" />
    <glyph glyph-name="k" unicode="k" horiz-adv-x="863" 
d="M221 1q-78 0 -105 101.5t-27 418.5q0 216 34.5 491.5t128.5 461.5q43 86 104 86q35 0 60 -42q17 -27 17 -73q0 -44 -15 -105q-72 -292 -72 -791q0 -80 13 -80q11 0 32 61q154 456 360 456q46 0 59 -39q3 -9 3 -18q0 -28 -33 -50q-130 -84 -197 -210q-32 -60 -32 -103
q0 -101 124 -221.5t124 -203.5q0 -71 -59 -71q-88 0 -181 190q-68 137 -93 137t-48 -73q-104 -323 -197 -323z" />
    <glyph glyph-name="l" unicode="l" horiz-adv-x="471" 
d="M318 -109q-55 0 -106.5 52t-84.5 174t-33 332q0 262 12 436q22 318 102 540q41 115 90 130q13 4 25 4q32 0 55 -32q17 -24 17 -75q0 -40 -11 -98q-34 -173 -42 -364.5t-8 -344.5q0 -515 76 -630q21 -31 21 -56q0 -29 -31 -46q-40 -22 -82 -22z" />
    <glyph glyph-name="m" unicode="m" horiz-adv-x="1304" 
d="M1191 -67q-171 0 -197 200q-11 86 -11 204q0 104 8 204q8 89 8 190q0 77 -29 77q-80 0 -119 -442q-12 -140 -29 -212q-25 -105 -115 -105q-128 0 -158 158q-13 72 -13 178q0 67 4 129q3 56 3 99q0 27 -1 49q-3 60 -31 60q-29 0 -59.5 -75.5t-43.5 -175.5t-18 -183
q-3 -61 -13 -115t-37.5 -89t-85.5 -35q-119 0 -155 140q-23 89 -23 253q0 152 8 263q20 241 113 241q107 0 107 -157q0 -41 -7 -175.5t-7 -263.5q0 -76 7 -76q8 0 14 72q49 553 258 553q166 0 166 -282v-221q0 -47 16 -47q18 0 23 48q20 181 36 295q42 274 213 274
q139 0 168 -178q13 -85 13 -195q0 -102 -4 -200q-3 -79 -3 -154q0 -129 44 -221q9 -20 9 -37q0 -21 -15 -34.5t-44 -13.5z" />
    <glyph glyph-name="n" unicode="n" horiz-adv-x="870" 
d="M725 -109q-78 0 -113 61q-44 76 -44 237q0 107 10 238q7 101 7 174q0 220 -38 220q-44 0 -93 -181.5t-73 -351.5q-13 -90 -23 -134q-25 -105 -115 -105q-119 0 -155 140q-24 92 -24 267q0 219 9 306t43.5 117.5t80.5 30.5q100 0 100 -123q0 -138 -10 -229t-10 -218
q0 -59 11 -59q7 0 17 57q49 294 114 477t186 183q85 0 123.5 -84t38.5 -253q0 -257 -4 -354q-4 -80 -4 -156q0 -119 26 -181q7 -17 7 -31q0 -48 -67 -48z" />
    <glyph glyph-name="o" unicode="o" horiz-adv-x="764" 
d="M412 101q85 1 130 117.5t45 253.5q0 181 -40 283t-95 102q-73 0 -122.5 -134t-49.5 -310q0 -134 37 -223t95 -89zM381 -34q-175 0 -273 185q-56 105 -56 266q0 228 58 357q102 226 287 226q293 0 293 -528q0 -268 -91.5 -387t-217.5 -119z" />
    <glyph glyph-name="p" unicode="p" horiz-adv-x="841" 
d="M420 259q62 0 108 84.5t46 253.5q0 259 -61 259q-70 0 -117.5 -94t-54.5 -221q-4 -80 -4 -114q0 -30 2.5 -69.5t19.5 -64.5q24 -34 61 -34zM212 -600q-103 0 -119 120q-11 91 -11 248q0 68 1 190t7 273.5t20.5 313.5t40 314t67 275.5t90.5 138.5q13 4 25 4q32 0 55 -34
q17 -26 17 -79q0 -44 -11 -105q-21 -117 -21 -147q0 -20 8 -20q9 0 28 20q65 71 145 71q84 0 136 -50.5t69.5 -134.5t17.5 -181q0 -180 -50 -285q-30 -62 -80 -106q-86 -77 -173 -77q-40 0 -70 6t-41 6q-36 0 -38 -110q-3 -169 -3 -361q0 -290 -110 -290z" />
    <glyph glyph-name="q" unicode="q" horiz-adv-x="853" 
d="M317 205q24 0 43 44q29 66 71 266q24 114 24 145q0 35 -17 52q-38 39 -83 39q-37 0 -60.5 -45t-34.5 -119.5t-11 -164.5q0 -96 18 -156.5t50 -60.5zM661 -600q-81 0 -122 163q-48 191 -48 386q0 194 5.5 281.5t5.5 139.5q0 27 -4 27q-5 0 -22 -73q-69 -297 -217 -297
q-91 0 -150 111.5t-59 331.5q0 96 26 195t82 165t145 66q75 0 140 -52q22 -17 37 -17q23 0 37 37.5t32 72.5q36 67 101 67q44 0 79.5 -36.5t35.5 -103.5q0 -148 -19 -364q-27 -324 -27 -477t23 -349q8 -69 8 -121q0 -153 -89 -153z" />
    <glyph glyph-name="r" unicode="r" horiz-adv-x="772" 
d="M233 -43q-91 0 -127 140q-24 92 -24 359q0 223 14 342q22 189 119 189q90 0 90 -194q0 -27 -3.5 -115.5t-3.5 -194.5q0 -23 6 -23q9 0 40.5 176.5t100.5 270t178 93.5q66 0 96.5 -44t30.5 -106q0 -65 -24 -104.5t-61 -39.5q-41 0 -53 72q-8 45 -35 45q-150 0 -228 -750
q-14 -116 -116 -116z" />
    <glyph glyph-name="s" unicode="s" horiz-adv-x="596" 
d="M275 -50q-99 0 -156.5 51t-57.5 154q0 64 20 106q18 37 41 37q38 0 38 -49l-1 -48q0 -117 92 -117q94 0 94 111q0 82 -143 242q-148 166 -148 319q0 113 69.5 181.5t180.5 68.5q99 0 152.5 -54.5t53.5 -152.5q0 -79 -42 -79t-42 58q0 53 -23 82.5t-65 29.5
q-92 0 -92 -115q0 -106 132 -241q172 -176 172 -323q0 -130 -79 -195.5t-196 -65.5z" />
    <glyph glyph-name="t" unicode="t" horiz-adv-x="549" 
d="M378 -100q-244 0 -244 596q0 213 6 307q2 39 2 71q0 22 -15 22q-12 0 -44 -16.5t-56 -16.5q-12 0 -19.5 9t-7.5 21q0 52 130 101q22 8 23 37q14 269 126 269q98 0 105 -255q1 -37 38 -52q113 -47 113 -95q0 -12 -7.5 -21t-19.5 -9q-24 0 -54 15q-43 22 -56 22
q-6 0 -11 -4q-10 -8 -12 -483q0 -271 67 -402q15 -29 15 -52q0 -64 -79 -64z" />
    <glyph glyph-name="u" unicode="u" horiz-adv-x="873" 
d="M741 -38q-151 0 -190 314q-5 41 -13 41t-23 -40q-82 -222 -210 -222q-152 0 -209 212q-36 135 -36 326q0 123 13 228q16 126 108 126q46 0 80 -30.5t34 -82.5q0 -29 -6 -99t-9.5 -140t-3.5 -125q0 -237 65 -237q67 0 128 229q55 204 65 398q6 114 105 114q69 0 102.5 -50
t33.5 -126q0 -32 -4 -92q-16 -230 -16 -356q0 -186 41 -304q5 -14 5 -28q0 -29 -18 -42.5t-42 -13.5z" />
    <glyph glyph-name="v" unicode="v" horiz-adv-x="774" 
d="M376 -54q-84 0 -143 72.5t-97.5 184t-58.5 234.5t-23.5 196t-3.5 107q0 54 5 91q16 118 108 118q56 0 85 -39.5t29 -121.5q0 -237 25 -444q28 -230 88 -230q35 0 68.5 84t60.5 240q40 231 45 432q3 120 71 120q67 0 67 -123q0 -270 -71 -526q-28 -103 -67 -192.5
t-86.5 -146t-101.5 -56.5z" />
    <glyph glyph-name="w" unicode="w" horiz-adv-x="1131" 
d="M735 -88q-143 0 -209 191q-9 27 -17 27q-7 0 -18 -26q-49 -117 -156 -117q-83 0 -137 49q-97 87 -134 446q-12 111 -12 168q0 152 7 212q16 134 108 134q46 0 80 -32.5t34 -87.5q0 -24 -3 -79q-6 -132 -6 -217q0 -431 82 -431q50 0 66 75q27 113 30 411q2 163 9 229.5
t36 99t72 32.5q46 0 79.5 -32.5t33.5 -87.5q0 -23 -2 -80q-6 -160 -6 -280q0 -454 77 -454q74 0 130 357q47 301 47 494q0 118 68 118q67 0 67 -128q0 -142 -16.5 -285t-32.5 -214l-23 -96q-27 -116 -65.5 -217t-86.5 -140t-102 -39z" />
    <glyph glyph-name="x" unicode="x" horiz-adv-x="787" 
d="M551 -80q-94 0 -223 200q-13 20 -28 20q-14 0 -30 -18q-85 -97 -180 -171q-15 -12 -27 -12q-35 0 -35 44q0 25 25 46q94 75 177 174q15 18 15 36q0 17 -10 37q-162 321 -162 486q0 106 28 146.5t81 40.5q52 0 74 -27.5t39 -96.5q84 -330 107 -330q13 0 30 31
q112 202 148 436q6 38 40 38q17 0 31 -9q19 -13 19 -39q0 -57 -17 -118q-58 -209 -199 -448q-11 -18 -11 -35q0 -18 8 -36q93 -217 162 -217q48 0 100 85q17 27 32 27q12 0 32 -14q14 -9 14 -29q0 -18 -23 -70q-34 -78 -85 -127.5t-132 -49.5z" />
    <glyph glyph-name="y" unicode="y" horiz-adv-x="880" 
d="M370 -600q-107 0 -179.5 71t-72.5 204q0 159 74 159q45 0 45 -54q0 -12 -2 -27q-7 -44 -7 -78q0 -122 96 -122q114 0 161 183q43 166 43 278q0 85 -3 182q-1 35 -11 35q-12 0 -31 -39q-64 -137 -173 -137q-83 0 -133 59.5t-75.5 152t-30.5 178.5t-5 148q0 117 16 280
q12 126 105 126q46 0 79.5 -30.5t33.5 -82.5q0 -29 -5.5 -125t-9.5 -168t-4 -131q0 -229 66 -229q70 0 119 173q42 150 42 264q0 66 8 126q18 135 127 135q62 0 89 -83q56 -173 56 -706q0 -158 -33 -305q-27 -126 -75 -218q-113 -219 -310 -219z" />
    <glyph glyph-name="z" unicode="z" horiz-adv-x="583" 
d="M434 -104q-178 0 -295 59.5t-117 151.5q0 57 34 132q258 601 258 625q0 28 -31 28q-88 0 -169 -37q-16 -8 -27 -8q-16 0 -28 24q-3 6 -3 34q0 16 32 32q92 47 188 47q155 0 220 -40.5t65 -94.5q0 -76 -301 -732q-12 -24 -12 -45q0 -30 35 -47q77 -36 157 -36q60 0 60 -46
q0 -47 -66 -47z" />
    <glyph glyph-name="braceleft" unicode="{" horiz-adv-x="679" 
d="M575 -199q-133 0 -203.5 34.5t-99 91.5t-30.5 104.5t-2 72.5q0 48 4 99.5t4 101.5q0 28 -1 56q-7 170 -154 231q-23 10 -23 34q0 26 23 36q112 49 133 142q20 89 20 180q0 152 4 207q6 73 36 132q64 128 289 128q14 0 24 -11t10 -26q0 -16 -10 -27t-24 -11
q-55 0 -78.5 -34t-30 -91.5t-6.5 -128.5q-1 -87 -12 -181q-23 -186 -146 -280q-25 -19 -25 -35t23 -33q124 -94 148 -281q11 -94 12 -182q0 -71 6.5 -128t30 -91t78.5 -34q14 0 24 -11t10 -27t-10 -27t-24 -11z" />
    <glyph glyph-name="bar" unicode="|" horiz-adv-x="260" 
d="M130 -200q-60 0 -60 78v1646q0 76 60 76t60 -76v-1646q0 -78 -60 -78z" />
    <glyph glyph-name="braceright" unicode="}" horiz-adv-x="679" 
d="M104 -199q-14 0 -24 11t-10 27t10 27t24 11q55 0 78.5 34t30 91t6.5 128q1 88 13 182q23 187 147 281q23 17 23 33t-25 35q-123 94 -145 280q-12 94 -13 181q0 71 -6.5 128.5t-30 91.5t-78.5 34q-14 0 -24 11t-10 27q0 15 10 26t24 11q225 0 290 -128q29 -59 35 -132
q4 -55 4 -207q0 -91 20 -180q21 -93 133 -142q23 -10 23 -36q0 -24 -23 -34q-147 -61 -154 -231q-1 -28 -1 -56q0 -50 4 -101.5t4 -99.5q0 -25 -2 -72.5t-30.5 -104.5t-99 -91.5t-203.5 -34.5z" />
    <glyph glyph-name="asciitilde" unicode="~" horiz-adv-x="790" 
d="M234 586q-63 0 -73 -60q-10 -64 -46 -64q-45 0 -45 64q0 166 148 166q86 0 180 -57t158 -57q63 0 73 70q10 64 46 64q45 0 45 -64q0 -176 -148 -176q-86 0 -180 57t-158 57z" />
    <glyph glyph-name="exclamdown" unicode="&#xa1;" horiz-adv-x="447" 
d="M230 720q69 0 69 -83q0 -185 42 -585q26 -228 26 -301q0 -173 -153 -173q-134 0 -134 180q0 135 40 428t40 458q0 76 70 76zM224 1000q110 0 110 -100t-110 -100t-110 100t110 100z" />
    <glyph glyph-name="cent" unicode="&#xa2;" horiz-adv-x="800" 
d="M451 -327q-30 0 -30 149l1 157q-272 41 -272 533q0 125 40 235q37 104 109 172q55 52 130 64l1 110q0 135 51 135q36 0 36 -133l-1 -113q51 -12 90 -51q55 -56 55 -159q0 -45 -18 -87t-51 -42q-15 0 -23.5 13t-8.5 55q0 36 -13 63t-40 27q-55 0 -86 -59q-44 -83 -44 -213
q0 -233 37 -315.5t109 -82.5q64 0 115 78t72 78q17 0 28.5 -13t11.5 -31q0 -88 -77 -177q-66 -76 -173 -88l-2 -156q-2 -149 -47 -149z" />
    <glyph glyph-name="sterling" unicode="&#xa3;" horiz-adv-x="844" 
d="M274 -60q-150 0 -150 99q0 88 80.5 194.5t80.5 179.5q0 76 -57 76h-72q-86 0 -86 44t86 44h46q26 0 26 9t-18 45q-75 148 -75 255q0 77 29.5 149t102.5 118.5t206 46.5q132 0 216.5 -76t84.5 -230q0 -134 -71 -134q-43 0 -43 124q0 196 -137 196q-54 0 -80.5 -32
t-35.5 -74.5t-9 -76.5q0 -114 49 -290q8 -30 44 -30h137q92 0 92 -44t-92 -44h-135q-20 0 -20 -27q0 -142 -88 -246.5t-88 -133.5q0 -17 28 -17q217 4 369 51q12 4 25 4q55 0 55 -65q0 -7 -5 -19.5t-26 -21.5q-55 -23 -181 -48.5t-288 -25.5z" />
    <glyph glyph-name="currency" unicode="&#xa4;" horiz-adv-x="786" 
d="M393 443q158 0 158 144t-158 144t-158 -144t158 -144zM600 441l72 -72q44 -45 44 -73q0 -14 -10 -24t-23 -10q-29 0 -73 44l-80 81q-55 -25 -137 -25t-137 25l-80 -81q-44 -44 -72 -44q-14 0 -24 10t-10 24q0 28 44 73l73 73q-41 54 -41 145t40 145l-76 77q-40 41 -40 69
q0 14 10.5 24t24.5 10q27 0 67 -40l84 -85q55 25 137 25t137 -25l84 85q40 40 68 40q14 0 24 -10t10 -24q0 -28 -40 -69l-76 -76q41 -55 41 -146t-41 -146z" />
    <glyph glyph-name="yen" unicode="&#xa5;" horiz-adv-x="792" 
d="M400 -26q-123 0 -123 188v35q0 33 -28 33h-94q-85 0 -85 44t85 44h98q24 0 24 27q0 25 -17 25h-105q-85 0 -85 44t85 44h51q22 0 22 9q0 8 -12 25q-146 207 -146 443q0 57 5 96q16 126 108 126q114 0 114 -171q0 -187 38 -328.5t79 -141.5q35 0 100 174.5t71 382.5
q2 84 70 84q67 0 67 -87q0 -225 -107 -479q-23 -56 -48 -99q-10 -18 -10 -26t29 -8h44q92 0 92 -44t-92 -44h-88q-28 0 -28 -26t30 -26h86q92 0 92 -44t-92 -44h-84q-31 0 -31 -30v-38q0 -188 -115 -188z" />
    <glyph glyph-name="brokenbar" unicode="&#xa6;" horiz-adv-x="260" 
d="M130 826.002q-60 0 -60 33.5391v707.768q0 32.6797 60 32.6797t60 -32.6797v-707.768q0 -33.5391 -60 -33.5391zM130 -614.998q-60 0 -60 33.5391v707.768q0 32.6797 60 32.6797t60 -32.6797v-707.768q0 -33.5391 -60 -33.5391z" />
    <glyph glyph-name="section" unicode="&#xa7;" horiz-adv-x="846" 
d="M416 -264q-96 0 -146 53.5t-50 147.5q0 89 42 89t42 -75q0 -41 18.5 -67t50.5 -26q40 0 65.5 34t25.5 106q0 112 -192 279t-192 333q0 136 101 218q31 25 73 43q24 10 24 27q0 10 -9 23q-79 115 -79 205q0 130 66 202t174 72q96 0 146 -53.5t50 -147.5q0 -89 -42 -89
t-42 75q0 41 -18.5 67t-50.5 26q-40 0 -65.5 -34t-25.5 -106q0 -112 192 -279t192 -333q0 -136 -100 -217q-37 -29 -84 -48q-16 -6 -16 -19q0 -11 11 -27q79 -110 79 -205q0 -130 -66 -202t-174 -72zM468 364q18 0 35 13q58 48 58 133q0 95 -140 244q-19 20 -43 20
q-14 0 -27 -9q-66 -48 -66 -139q0 -95 137 -242q20 -20 46 -20z" />
    <glyph glyph-name="dieresis" unicode="&#xa8;" horiz-adv-x="640" 
d="M180 1100q-110 0 -110 100t110 100t110 -100t-110 -100zM460 1100q-110 0 -110 100t110 100t110 -100t-110 -100z" />
    <glyph glyph-name="copyright" unicode="&#xa9;" horiz-adv-x="1481" 
d="M748 290q-100 0 -173.5 84t-73.5 287q0 87 32 163q29 72 86.5 119t140.5 47q61 0 105 -38.5t44 -109.5q0 -32 -14 -61t-41 -29q-12 0 -18.5 9t-6.5 38q0 25 -10.5 44t-32.5 19q-44 0 -69 -41q-35 -58 -35 -148q0 -161 29.5 -218.5t87.5 -57.5q51 0 92 54.5t58 54.5
q13 0 22.5 -9t9.5 -22q0 -61 -62 -123t-171 -62zM741 -20q-274 0 -467.5 193.5t-193.5 466.5q0 274 193.5 467.5t467.5 193.5q273 0 466.5 -193.5t193.5 -467.5q0 -273 -193.5 -466.5t-466.5 -193.5zM741 46q246 0 420 174t174 420t-174 420.5t-420 174.5
q-247 0 -421 -174.5t-174 -420.5t174 -420t421 -174z" />
    <glyph glyph-name="ordfeminine" unicode="&#xaa;" horiz-adv-x="603" 
d="M496.16 750.402q-106.255 0 -131.334 181.793q-5.28027 40.1982 -7.25977 102.596q-0.660156 25.7988 -5.28027 25.7988q-6.59961 0 -13.8594 -26.6992t-17.1592 -55.498q-21.1191 -61.7969 -54.4473 -99.5957q-33.3291 -37.7979 -88.1064 -37.7979
q-53.458 0 -88.1064 58.4971q-34.6484 58.498 -34.6484 190.492q0 126.595 42.5674 208.792q42.5684 82.1963 124.405 82.1963q58.0781 0 101.636 -46.7979q10.5596 -10.7998 19.1396 -10.7998q13.1992 0 23.7588 23.3994q23.0986 52.7979 76.5566 52.7979
q75.8975 0 75.8975 -73.1973q0 -19.7988 -4.62012 -78.5967q-9.89941 -139.794 -9.89941 -244.19q0 -124.795 40.918 -186.592q9.89941 -15 9.89941 -26.3994q0 -14.999 -13.8594 -24.5986q-21.7783 -15.5996 -46.1982 -15.5996zM232.171 947.794q16.5 0 28.709 23.999
q12.21 23.999 22.7695 64.1973q10.5596 40.1992 21.1191 89.9971q7.91992 37.1982 17.1592 76.1963q3.95996 17.3994 3.95996 31.1992q-0.660156 14.3994 -6.59961 23.3984q-24.4189 35.999 -61.3779 35.999q-25.0791 0 -40.5879 -35.3984
q-15.5098 -35.3984 -22.7695 -88.7969q-7.25977 -53.3975 -7.25977 -107.396q0 -113.396 44.8779 -113.396zM423 575h-236q-43 0 -43 44t43 44h236q46 0 46 -44t-46 -44z" />
    <glyph glyph-name="guillemotleft" unicode="&#xab;" horiz-adv-x="711" 
d="M334 116q-29 0 -58 51l-160 277q-16 28 -16 55t16 54l160 277q29 50 58 50q10 0 19 -5q19 -11 19 -33t-20 -56l-134 -233q-15 -27 -15 -54t15 -54l134 -234q20 -34 20 -57q0 -21 -19 -32q-9 -6 -19 -6zM573 116q-29 0 -58 51l-160 277q-16 28 -16 55t16 54l160 277
q29 50 58 50q10 0 19 -5q19 -11 19 -33t-20 -56l-134 -233q-15 -27 -15 -54t15 -54l134 -234q20 -34 20 -57q0 -21 -19 -32q-9 -6 -19 -6z" />
    <glyph glyph-name="logicalnot" unicode="&#xac;" horiz-adv-x="790" 
d="M599 543h-443q-86 0 -86 44t86 44h472q92 0 92 -63v-220q0 -86 -44 -86t-44 86v156q0 39 -33 39z" />
    <glyph glyph-name="registered" unicode="&#xae;" horiz-adv-x="1481" 
d="M918 844q0 40 -29 40q-32 0 -59 -40q-29 -47 -76 -195q-14 -42 -14 -45q0 -4 3 -4t7.5 3t9.5 7q158 104 158 234zM1045 854q0 -163 -201 -281q-13 -8 -13 -16q0 -10 13 -24q72 -72 110 -72q9 0 30.5 8t35.5 8q25 0 25 -28q0 -48 -37 -70.5t-74 -22.5q-123 0 -212 114
q-14 18 -18 18q-5 0 -9 -13q-64 -184 -136 -184q-46 0 -73 43.5t-38 121t-11 182.5q0 111 3 173q5 115 106 115q96 0 96 -103v-164q0 -61 10 -61q9 0 23 48q47 152 84 222q67 123 160 123q62 0 94 -38.5t32 -98.5zM741 46q246 0 420 174t174 421q0 246 -174 420t-420 174
q-247 0 -421 -174t-174 -420q0 -247 174 -421t421 -174zM741 -20q-274 0 -467.5 193.5t-193.5 467.5q0 273 193.5 466.5t467.5 193.5q273 0 466.5 -193.5t193.5 -466.5q0 -274 -193.5 -467.5t-466.5 -193.5z" />
    <glyph glyph-name="macron" unicode="&#xaf;" horiz-adv-x="650" 
d="M522 1256h-399q-73 0 -73 44t73 44h399q78 0 78 -44t-78 -44z" />
    <glyph glyph-name="degree" unicode="&#xb0;" horiz-adv-x="655" 
d="M328 750q-248 0 -248 225t248 225q247 0 247 -225t-247 -225zM328 829q160 0 160 146t-160 146q-161 0 -161 -146t161 -146z" />
    <glyph glyph-name="plusminus" unicode="&#xb1;" horiz-adv-x="810" 
d="M405 262q-44 0 -44 86v172q0 23 -27 23h-168q-86 0 -86 44t86 44h168q27 0 27 28v161q0 92 44 92t44 -92v-161q0 -28 30 -28h159q92 0 92 -44t-92 -44h-159q-30 0 -30 -23v-172q0 -86 -44 -86zM585 0h-436q-79 0 -79 44t79 44h436q85 0 85 -44t-85 -44z" />
    <glyph glyph-name="uni00B2" unicode="&#xb2;" horiz-adv-x="514" 
d="M142 404q-124 0 -124 79q0 58 79 165q33 45 74 105q98 149 98 245q0 19 -5 41.5t-16.5 35.5t-33.5 13q-62 0 -62 -98q0 -94 -55 -94q-72 0 -72 100t62.5 152t159.5 52q95 0 149.5 -32t75.5 -79.5t21 -96.5q0 -117 -110 -251q-46 -57 -93 -107q-93 -98 -93 -108
q0 -6 22 -6q24 0 74.5 5.5t111.5 22.5q13 4 25 4q63 0 63 -59q0 -7 -6 -20t-29 -22q-38 -15 -123 -31t-193 -16z" />
    <glyph glyph-name="uni00B3" unicode="&#xb3;" horiz-adv-x="514" 
d="M225 430q-94 0 -135.5 39.5t-41.5 91.5q0 64 59 64q60 0 60 -64q0 -32 38 -32q58 0 58 83q0 31 -17.5 56.5t-74.5 54.5q-26 14 -26 38q0 27 26 44q104 66 104 193q0 19 -5 41.5t-17 35.5t-34 13q-65 0 -65 -98q0 -94 -55 -94q-72 0 -72 100t63 152t162 52q96 0 151.5 -32
t77 -79.5t21.5 -96.5q0 -137 -179 -209q-17 -7 -17 -17q0 -7 20 -16q131 -56 131 -145q0 -90 -71 -132.5t-161 -42.5z" />
    <glyph glyph-name="acute" unicode="&#xb4;" horiz-adv-x="412" 
d="M112 1100q-42 0 -42 39q0 21 23 54q111 157 187 157q30 0 46 -20t16 -46q0 -46 -100 -115t-130 -69z" />
    <glyph glyph-name="mu" unicode="&#xb5;" horiz-adv-x="875" 
d="M80 -400q-63 0 -63 51q0 18 12 41q53 104 53 319q0 238 -10.5 342.5t-10.5 239.5q0 123 13 228q16 126 108 126q46 0 80 -30.5t34 -82.5q0 -29 -6 -99t-9.5 -140t-3.5 -125q0 -237 65 -237q67 0 128 229q55 204 65 398q6 114 105 114q69 0 102.5 -50t33.5 -126
q0 -32 -4 -92q-16 -230 -16 -356q0 -186 41 -304q5 -14 5 -28q0 -29 -18 -42.5t-42 -13.5q-151 0 -190 314q-5 41 -13 41t-23 -40q-82 -222 -210 -222q-17 0 -33 3q-3 -458 -193 -458z" />
    <glyph glyph-name="paragraph" unicode="&#xb6;" horiz-adv-x="956" 
d="M456 1302v-1443q0 -69 -60 -69t-60 69v1081q-236 40 -236 225q0 225 281 225h390q85 0 85 -44t-85 -44h-61v-1443q0 -69 -60 -69t-60 69v1443h-134z" />
    <glyph glyph-name="periodcentered" unicode="&#xb7;" horiz-adv-x="508" 
d="M135.996 615.301q-93.4971 0 -93.4971 84.9971q0 84.998 93.4971 84.998t93.4971 -84.998q0 -84.9971 -93.4971 -84.9971z" />
    <glyph glyph-name="periodcentered" unicode="&#x2219;" horiz-adv-x="508" 
d="M135.996 615.301q-93.4971 0 -93.4971 84.9971q0 84.998 93.4971 84.998t93.4971 -84.998q0 -84.9971 -93.4971 -84.9971z" />
    <glyph glyph-name="cedilla" unicode="&#xb8;" horiz-adv-x="401" 
d="M134 -400q-64 0 -64 48q0 29 39 36q126 22 126 104q0 52 -74 80q-38 15 -38 42q0 13 10 28q68 108 110 108q21 0 21 -18t-48 -92q-5 -8 -5 -14q0 -12 15 -18q105 -43 105 -142q0 -63 -56.5 -112.5t-140.5 -49.5z" />
    <glyph glyph-name="uni00B9" unicode="&#xb9;" horiz-adv-x="515" 
d="M321 424q-106 0 -106 133v489l-49 -33q-39 -27 -69 -27q-26 0 -42 18q-10 11 -10 24q0 28 47 60l113 76q51 36 105 36q112 0 112 -141v-502q0 -133 -101 -133z" />
    <glyph glyph-name="ordmasculine" unicode="&#xba;" horiz-adv-x="547" 
d="M289.909 861.598q56.0977 0.599609 85.7959 70.4971q29.6992 69.8975 29.6992 152.094q0 108.596 -26.3994 169.793q-26.3984 61.1973 -62.6973 61.1973q-48.1777 0 -80.8467 -80.3965q-32.668 -80.3965 -32.668 -185.992q0 -80.3965 24.4189 -133.795
q24.4189 -53.3975 62.6973 -53.3975zM269.45 780.601q-115.496 0 -180.173 110.996q-36.959 62.9971 -36.959 159.593q0 136.795 38.2783 214.191q67.3174 135.595 189.413 135.595q193.372 0 193.372 -316.787q0 -160.794 -60.3877 -232.19
q-60.3877 -71.3975 -143.544 -71.3975zM379 605h-236q-43 0 -43 44t43 44h236q46 0 46 -44t-46 -44z" />
    <glyph glyph-name="guillemotright" unicode="&#xbb;" horiz-adv-x="711" 
d="M138 116q-10 0 -19 6q-19 11 -19 32q0 23 20 57l134 234q16 27 16 54t-16 54l-134 233q-20 34 -20 56t19 33q9 5 19 5q29 0 58 -50l160 -277q16 -27 16 -54t-16 -55l-160 -277q-29 -51 -58 -51zM377 116q-10 0 -19 6q-19 11 -19 32q0 23 20 57l134 234q16 27 16 54
t-16 54l-134 233q-20 34 -20 56t19 33q9 5 19 5q29 0 58 -50l160 -277q16 -27 16 -54t-16 -55l-160 -277q-29 -51 -58 -51z" />
    <glyph glyph-name="onequarter" unicode="&#xbc;" horiz-adv-x="1223" 
d="M321 424q-106 0 -106 133v489l-49 -33q-39 -27 -69 -27q-26 0 -42 18q-10 11 -10 24q0 28 47 60l113 76q51 36 105 36q112 0 112 -141v-502q0 -133 -101 -133zM348 -24q-33 0 -33 26q0 14 485 1157q26 60 77 60q32 0 32 -25q0 -14 -485 -1156q-26 -62 -76 -62zM954 264
v239q0 24 -4 24q-3 0 -10 -24q-65 -230 -65 -249q0 -14 16 -14h45q18 0 18 24zM1054 0q-41 0 -70.5 21t-29.5 55v41q0 22 -22 22l-74 1q-128 4 -128 72q0 107 111 338q109 226 207 226q101 0 101 -99v-416q0 -13 5 -18t14 -7q37 -7 37 -45q0 -40 -40 -47q-7 -1 -11.5 -8
t-4.5 -17v-34q0 -43 -30 -64t-65 -21z" />
    <glyph glyph-name="onehalf" unicode="&#xbd;" horiz-adv-x="1223" 
d="M321 424q-106 0 -106 133v489l-49 -33q-39 -27 -69 -27q-26 0 -42 18q-10 11 -10 24q0 28 47 60l113 76q51 36 105 36q112 0 112 -141v-502q0 -133 -101 -133zM348 -24q-33 0 -33 26q0 14 485 1157q26 60 77 60q32 0 32 -25q0 -14 -485 -1156q-26 -62 -76 -62zM851 0
q-124 0 -124 79q0 58 79 165q33 45 74 105q98 149 98 245q0 19 -5 41.5t-16.5 35.5t-33.5 13q-62 0 -62 -98q0 -94 -55 -94q-72 0 -72 100t62.5 152t159.5 52q95 0 149.5 -32t75.5 -79.5t21 -96.5q0 -117 -110 -251q-46 -57 -93 -107q-93 -98 -93 -108q0 -6 22 -6
q24 0 74.5 5.5t111.5 22.5q13 4 25 4q63 0 63 -59q0 -7 -6 -20t-29 -22q-38 -15 -123 -31t-193 -16z" />
    <glyph glyph-name="threequarters" unicode="&#xbe;" horiz-adv-x="1222" 
d="M225 430q-94 0 -135.5 39.5t-41.5 91.5q0 64 59 64q60 0 60 -64q0 -32 38 -32q58 0 58 83q0 31 -17.5 56.5t-74.5 54.5q-26 14 -26 38q0 27 26 44q104 66 104 193q0 19 -5 41.5t-17 35.5t-34 13q-65 0 -65 -98q0 -94 -55 -94q-72 0 -72 100t63 152t162 52q96 0 151.5 -32
t77 -79.5t21.5 -96.5q0 -137 -179 -209q-17 -7 -17 -17q0 -7 20 -16q131 -56 131 -145q0 -90 -71 -132.5t-161 -42.5zM347 -24q-33 0 -33 26q0 14 485 1157q26 60 77 60q32 0 32 -25q0 -14 -485 -1156q-26 -62 -76 -62zM953 264v239q0 24 -4 24q-3 0 -10 -24
q-65 -230 -65 -249q0 -14 16 -14h45q18 0 18 24zM1053 0q-41 0 -70.5 21t-29.5 55v41q0 22 -22 22l-74 1q-128 4 -128 72q0 107 111 338q109 226 207 226q101 0 101 -99v-416q0 -13 5 -18t14 -7q37 -7 37 -45q0 -40 -40 -47q-7 -1 -11.5 -8t-4.5 -17v-34q0 -43 -30 -64
t-65 -21z" />
    <glyph glyph-name="questiondown" unicode="&#xbf;" horiz-adv-x="800" 
d="M451 1000q110 0 110 -100t-110 -100t-110 100t110 100zM458 720q62 0 68 -83q5 -56 5 -104q0 -249 -123 -379q-106 -113 -106 -260q0 -78 42.5 -126t120.5 -48q119 0 159 139q17 57 17 106q0 59 39 59q70 0 70 -174q0 -114 -85.5 -196.5t-242.5 -82.5q-188 0 -280 89.5
t-92 225.5q0 217 145.5 359.5t169 238t23.5 160.5q0 76 70 76z" />
    <glyph glyph-name="Agrave" unicode="&#xc0;" horiz-adv-x="1090" 
d="M134 -166q-74 0 -74 82q0 44 10 164q44 493 67 621q53 300 146 484q109 215 272 215q356 0 418 -696q17 -192 17 -513q0 -332 -145 -332q-130 0 -131 297q-1 131 -79 131h-327q-54 0 -60 -112q-16 -341 -114 -341zM367 378q207 0 274.5 9.5t67.5 73.5q0 44 -11 186
q-47 616 -184 616q-80 0 -138 -179q-80 -249 -105 -540q-5 -65 -5 -74q0 -92 101 -92zM574 1500q-30 0 -130 69t-100 115q0 26 16 46t46 20q76 0 187 -157q23 -33 23 -54q0 -39 -42 -39z" />
    <glyph glyph-name="Aacute" unicode="&#xc1;" horiz-adv-x="1090" 
d="M134 -166q-74 0 -74 82q0 44 10 164q44 493 67 621q53 300 146 484q109 215 272 215q356 0 418 -696q17 -192 17 -513q0 -332 -145 -332q-130 0 -131 297q-1 131 -79 131h-327q-54 0 -60 -112q-16 -341 -114 -341zM367 378q207 0 274.5 9.5t67.5 73.5q0 44 -11 186
q-47 616 -184 616q-80 0 -138 -179q-80 -249 -105 -540q-5 -65 -5 -74q0 -92 101 -92zM476 1500q-42 0 -42 39q0 21 23 54q111 157 187 157q30 0 46 -20t16 -46q0 -46 -100 -115t-130 -69z" />
    <glyph glyph-name="Acircumflex" unicode="&#xc2;" horiz-adv-x="1090" 
d="M134 -166q-74 0 -74 82q0 44 10 164q44 493 67 621q53 300 146 484q109 215 272 215q356 0 418 -696q17 -192 17 -513q0 -332 -145 -332q-130 0 -131 297q-1 131 -79 131h-327q-54 0 -60 -112q-16 -341 -114 -341zM367 378q207 0 274.5 9.5t67.5 73.5q0 44 -11 186
q-47 616 -184 616q-80 0 -138 -179q-80 -249 -105 -540q-5 -65 -5 -74q0 -92 101 -92zM697 1500q-30 0 -63.5 40.5t-67.5 79.5q-14 16 -28 16q-12 0 -26 -16q-34 -40 -67.5 -80t-63.5 -40q-42 0 -42 39q0 21 24 53l73 99q44 59 103 59t103 -59l73 -99q24 -32 24 -53
q0 -39 -42 -39z" />
    <glyph glyph-name="Atilde" unicode="&#xc3;" horiz-adv-x="1090" 
d="M134 -166q-74 0 -74 82q0 44 10 164q44 493 67 621q53 300 146 484q109 215 272 215q356 0 418 -696q17 -192 17 -513q0 -332 -145 -332q-130 0 -131 297q-1 131 -79 131h-327q-54 0 -60 -112q-16 -341 -114 -341zM367 378q207 0 274.5 9.5t67.5 73.5q0 44 -11 186
q-47 616 -184 616q-80 0 -138 -179q-80 -249 -105 -540q-5 -65 -5 -74q0 -92 101 -92zM365 1521q-40 0 -40 51q0 109 99 109q53 0 106.5 -33t86.5 -33q24 0 30 38.5t38 38.5q40 0 40 -51q0 -114 -99 -114q-53 0 -106.5 32.5t-86.5 32.5q-24 0 -30 -35.5t-38 -35.5z" />
    <glyph glyph-name="Adieresis" unicode="&#xc4;" horiz-adv-x="1090" 
d="M134 -166q-74 0 -74 82q0 44 10 164q44 493 67 621q53 300 146 484q109 215 272 215q356 0 418 -696q17 -192 17 -513q0 -332 -145 -332q-130 0 -131 297q-1 131 -79 131h-327q-54 0 -60 -112q-16 -341 -114 -341zM367 378q207 0 274.5 9.5t67.5 73.5q0 44 -11 186
q-47 616 -184 616q-80 0 -138 -179q-80 -249 -105 -540q-5 -65 -5 -74q0 -92 101 -92zM407 1500q-110 0 -110 100t110 100t110 -100t-110 -100zM687 1500q-110 0 -110 100t110 100t110 -100t-110 -100z" />
    <glyph glyph-name="Aring" unicode="&#xc5;" horiz-adv-x="1090" 
d="M134 -166q-74 0 -74 82q0 44 10 164q44 493 67 621q53 300 146 484q109 215 272 215q356 0 418 -696q17 -192 17 -513q0 -332 -145 -332q-130 0 -131 297q-1 131 -79 131h-327q-54 0 -60 -112q-16 -341 -114 -341zM367 378q207 0 274.5 9.5t67.5 73.5q0 44 -11 186
q-47 616 -184 616q-80 0 -138 -179q-80 -249 -105 -540q-5 -65 -5 -74q0 -92 101 -92zM554 1450q-61 0 -104.5 43.5t-43.5 108.5q0 61 43.5 104.5t104.5 43.5t104.5 -43.5t43.5 -104.5q0 -65 -43.5 -108.5t-104.5 -43.5zM554 1536q26 0 44.5 18.5t18.5 46.5q0 26 -18.5 45
t-44.5 19t-45 -19t-19 -45q0 -28 19 -46.5t45 -18.5z" />
    <glyph glyph-name="AE" unicode="&#xc6;" horiz-adv-x="1487" 
d="M367 378q207 0 274.5 9.5t67.5 73.5q0 44 -11 186q-47 616 -184 616q-80 0 -138 -179q-80 -249 -105 -540q-5 -65 -5 -74q0 -92 101 -92zM1070 -170q-332 0 -352 319q-1 19 -5 47q-12 91 -78 91h-327q-54 0 -60 -112q-16 -341 -114 -341q-74 0 -74 82q0 44 10 164
q44 493 67 621q53 300 146 484q109 215 272 215q146 0 263 -132q32 115 304 115q164 0 288 -41q103 -35 103 -76q0 -12 -6 -24q-15 -30 -48 -30q-11 0 -50 16q-97 39 -228 39q-87 0 -113.5 -51.5t-36.5 -173.5q-26 -297 -26 -498q0 -62 115 -62q142 0 221 30q19 7 34 7
q31 0 44 -34q4 -10 4 -20q0 -36 -35 -49q-114 -42 -269 -42q-115 0 -115 -69q0 -133 13 -225q8 -58 36.5 -94.5t93.5 -36.5q163 0 277 52q24 11 35 11q33 0 48 -30q6 -12 6 -24q0 -32 -29 -48q-146 -80 -414 -80z" />
    <glyph glyph-name="Ccedilla" unicode="&#xc7;" horiz-adv-x="977" 
d="M492 -526q-64 0 -64 48q0 29 39 36q126 22 126 104q0 52 -74 80q-38 15 -38 42q0 13 10 28q12 20 12 29q0 8 -18 12q-239 52 -358 290q-75 150 -75 374q0 252 69.5 447.5t201 307t315.5 111.5q102 0 165.5 -48t93 -118.5t29.5 -138.5q0 -69 -15.5 -122.5t-51.5 -53.5
q-42 0 -42 61q0 90 -35 172q-42 99 -119 99q-73 0 -142 -74.5t-113.5 -228t-44.5 -392.5q0 -55 8.5 -127.5t28 -146.5t54.5 -137.5t87.5 -102.5t127.5 -39q69 0 127 35.5t93 90.5q18 27 49 27q40 0 40 -40q0 -12 -7 -27q-29 -59 -84 -111.5t-130 -85.5q-64 -28 -137 -32
q-27 -2 -37 -18q-14 -24 -14 -29q0 -12 15 -18q105 -43 105 -142q0 -63 -56.5 -112.5t-140.5 -49.5z" />
    <glyph glyph-name="Egrave" unicode="&#xc8;" horiz-adv-x="880" 
d="M463 -170q-332 0 -352 319q-9 138 -9 271q0 77 5 218q18 515 76 632q37 76 116 96q69 17 216 17q164 0 288 -41q103 -35 103 -76q0 -12 -6 -24q-15 -30 -48 -30q-11 0 -50 16q-97 39 -228 39q-87 0 -113.5 -51.5t-36.5 -173.5q-26 -297 -26 -498q0 -62 115 -62
q142 0 221 30q19 7 34 7q31 0 44 -34q4 -10 4 -20q0 -36 -35 -49q-114 -42 -269 -42q-116 0 -116 -69q0 -133 14 -225q8 -58 36.5 -94.5t93.5 -36.5q163 0 277 52q24 11 35 11q33 0 48 -30q6 -12 6 -24q0 -32 -29 -48q-146 -80 -414 -80zM553 1500q-30 0 -130 69t-100 115
q0 26 16 46t46 20q76 0 187 -157q23 -33 23 -54q0 -39 -42 -39z" />
    <glyph glyph-name="Eacute" unicode="&#xc9;" horiz-adv-x="880" 
d="M463 -170q-332 0 -352 319q-9 138 -9 271q0 77 5 218q18 515 76 632q37 76 116 96q69 17 216 17q164 0 288 -41q103 -35 103 -76q0 -12 -6 -24q-15 -30 -48 -30q-11 0 -50 16q-97 39 -228 39q-87 0 -113.5 -51.5t-36.5 -173.5q-26 -297 -26 -498q0 -62 115 -62
q142 0 221 30q19 7 34 7q31 0 44 -34q4 -10 4 -20q0 -36 -35 -49q-114 -42 -269 -42q-116 0 -116 -69q0 -133 14 -225q8 -58 36.5 -94.5t93.5 -36.5q163 0 277 52q24 11 35 11q33 0 48 -30q6 -12 6 -24q0 -32 -29 -48q-146 -80 -414 -80zM455 1500q-42 0 -42 39q0 21 23 54
q111 157 187 157q30 0 46 -20t16 -46q0 -46 -100 -115t-130 -69z" />
    <glyph glyph-name="Ecircumflex" unicode="&#xca;" horiz-adv-x="880" 
d="M463 -170q-332 0 -352 319q-9 138 -9 271q0 77 5 218q18 515 76 632q37 76 116 96q69 17 216 17q164 0 288 -41q103 -35 103 -76q0 -12 -6 -24q-15 -30 -48 -30q-11 0 -50 16q-97 39 -228 39q-87 0 -113.5 -51.5t-36.5 -173.5q-26 -297 -26 -498q0 -62 115 -62
q142 0 221 30q19 7 34 7q31 0 44 -34q4 -10 4 -20q0 -36 -35 -49q-114 -42 -269 -42q-116 0 -116 -69q0 -133 14 -225q8 -58 36.5 -94.5t93.5 -36.5q163 0 277 52q24 11 35 11q33 0 48 -30q6 -12 6 -24q0 -32 -29 -48q-146 -80 -414 -80zM662 1500q-30 0 -63.5 40.5
t-67.5 79.5q-14 16 -28 16q-12 0 -26 -16q-34 -40 -67.5 -80t-63.5 -40q-42 0 -42 39q0 21 24 53l73 99q44 59 103 59t103 -59l73 -99q24 -32 24 -53q0 -39 -42 -39z" />
    <glyph glyph-name="Edieresis" unicode="&#xcb;" horiz-adv-x="880" 
d="M463 -170q-332 0 -352 319q-9 138 -9 271q0 77 5 218q18 515 76 632q37 76 116 96q69 17 216 17q164 0 288 -41q103 -35 103 -76q0 -12 -6 -24q-15 -30 -48 -30q-11 0 -50 16q-97 39 -228 39q-87 0 -113.5 -51.5t-36.5 -173.5q-26 -297 -26 -498q0 -62 115 -62
q142 0 221 30q19 7 34 7q31 0 44 -34q4 -10 4 -20q0 -36 -35 -49q-114 -42 -269 -42q-116 0 -116 -69q0 -133 14 -225q8 -58 36.5 -94.5t93.5 -36.5q163 0 277 52q24 11 35 11q33 0 48 -30q6 -12 6 -24q0 -32 -29 -48q-146 -80 -414 -80zM364 1500q-110 0 -110 100t110 100
t110 -100t-110 -100zM644 1500q-110 0 -110 100t110 100t110 -100t-110 -100z" />
    <glyph glyph-name="Igrave" unicode="&#xcc;" horiz-adv-x="527" 
d="M261 -159q-165 0 -165 568q0 255 28 625q13 168 44 246q40 100 154 100q84 0 95 -119q6 -61 6 -120q0 -58 -6 -115q-29 -331 -29 -592v-345.5t-127 -247.5zM308 1500q-30 0 -130 69t-100 115q0 26 16 46t46 20q76 0 187 -157q23 -33 23 -54q0 -39 -42 -39z" />
    <glyph glyph-name="Iacute" unicode="&#xcd;" horiz-adv-x="527" 
d="M261 -159q-165 0 -165 568q0 255 28 625q13 168 44 246q40 100 154 100q84 0 95 -119q6 -61 6 -120q0 -58 -6 -115q-29 -331 -29 -592v-345.5t-127 -247.5zM211 1500q-42 0 -42 39q0 21 23 54q111 157 187 157q30 0 46 -20t16 -46q0 -46 -100 -115t-130 -69z" />
    <glyph glyph-name="Icircumflex" unicode="&#xce;" horiz-adv-x="527" 
d="M261 -159q-165 0 -165 568q0 255 28 625q13 168 44 246q40 100 154 100q84 0 95 -119q6 -61 6 -120q0 -58 -6 -115q-29 -331 -29 -592v-345.5t-127 -247.5zM468 1500q-30 0 -63.5 40.5t-67.5 79.5q-14 16 -28 16q-12 0 -26 -16q-34 -40 -67.5 -80t-63.5 -40q-42 0 -42 39
q0 21 24 53l73 99q44 59 103 59t103 -59l73 -99q24 -32 24 -53q0 -39 -42 -39z" />
    <glyph glyph-name="Idieresis" unicode="&#xcf;" horiz-adv-x="527" 
d="M261 -159q-165 0 -165 568q0 255 28 625q13 168 44 246q40 100 154 100q84 0 95 -119q6 -61 6 -120q0 -58 -6 -115q-29 -331 -29 -592v-345.5t-127 -247.5zM174 1500q-110 0 -110 100t110 100t110 -100t-110 -100zM454 1500q-110 0 -110 100t110 100t110 -100t-110 -100z
" />
    <glyph glyph-name="Eth" unicode="&#xd0;" horiz-adv-x="1383" 
d="M101 655q7 171 23 379q13 168 44 246q40 103 140 103q62 0 95 -63q7 -14 21 -14q16 0 105 47t206 47q148 0 258.5 -65.5t182.5 -175.5q133 -205 133 -494q0 -162 -44 -303q-51 -160 -139 -282q-187 -258 -510 -258q-85 0 -149 40t-79 40q-29 0 -49 -25q-30 -36 -78 -36
q-165 0 -165 568q0 74 2 158h-9q-86 0 -86 44t86 44h12zM391 655h84q92 0 92 -44t-92 -44h-86q-1 -63 -1 -133v-273q0 -106 55 -154t136 -48q121 0 208 71t140 187q83 183 83 421q0 66 -9 163q-8 88 -46 193q-48 130 -127 205q-76 71 -180 71q-84 0 -175 -73
q-70 -56 -82 -542z" />
    <glyph glyph-name="Ntilde" unicode="&#xd1;" horiz-adv-x="1125" 
d="M823 -168q-94 0 -152 132q-115 258 -269 802q-35 123 -51 123q-12 0 -12 -241q0 -51 8 -254.5t8 -304.5q0 -248 -113 -248q-146 0 -146 568q0 301 34 691q10 108 30 189q24 94 103 94q121 0 174 -181q288 -990 315 -990q26 0 26 113q0 214 -38 701q-5 57 -5 115
q0 59 5 120q10 122 84 122q102 0 138 -103q47 -135 47 -550q0 -686 -79 -824q-42 -74 -107 -74zM393 1521q-40 0 -40 51q0 109 99 109q53 0 106.5 -33t86.5 -33q24 0 30 38.5t38 38.5q40 0 40 -51q0 -114 -99 -114q-53 0 -106.5 32.5t-86.5 32.5q-24 0 -30 -35.5t-38 -35.5z
" />
    <glyph glyph-name="Ograve" unicode="&#xd2;" horiz-adv-x="1127" 
d="M560 -158q-147 0 -259.5 75.5t-176.5 225.5t-64 374q0 252 64.5 447.5t190 307t309.5 111.5q225 0 331 -243q88 -202 88 -507q0 -334 -108 -547q-123 -244 -375 -244zM611 -14q137 0 219 178q36 78 56 167q37 163 37 302q0 216 -43.5 348t-106.5 192.5t-123 60.5
q-74 0 -137.5 -81t-102 -236.5t-38.5 -415.5q0 -515 239 -515zM601 1500q-30 0 -130 69t-100 115q0 26 16 46t46 20q76 0 187 -157q23 -33 23 -54q0 -39 -42 -39z" />
    <glyph glyph-name="Oacute" unicode="&#xd3;" horiz-adv-x="1127" 
d="M560 -158q-147 0 -259.5 75.5t-176.5 225.5t-64 374q0 252 64.5 447.5t190 307t309.5 111.5q225 0 331 -243q88 -202 88 -507q0 -334 -108 -547q-123 -244 -375 -244zM611 -14q137 0 219 178q36 78 56 167q37 163 37 302q0 216 -43.5 348t-106.5 192.5t-123 60.5
q-74 0 -137.5 -81t-102 -236.5t-38.5 -415.5q0 -515 239 -515zM504 1500q-42 0 -42 39q0 21 23 54q111 157 187 157q30 0 46 -20t16 -46q0 -46 -100 -115t-130 -69z" />
    <glyph glyph-name="Ocircumflex" unicode="&#xd4;" horiz-adv-x="1127" 
d="M560 -158q-147 0 -259.5 75.5t-176.5 225.5t-64 374q0 252 64.5 447.5t190 307t309.5 111.5q225 0 331 -243q88 -202 88 -507q0 -334 -108 -547q-123 -244 -375 -244zM611 -14q137 0 219 178q36 78 56 167q37 163 37 302q0 216 -43.5 348t-106.5 192.5t-123 60.5
q-74 0 -137.5 -81t-102 -236.5t-38.5 -415.5q0 -515 239 -515zM753 1500q-30 0 -63.5 40.5t-67.5 79.5q-14 16 -28 16q-12 0 -26 -16q-34 -40 -67.5 -80t-63.5 -40q-42 0 -42 39q0 21 24 53l73 99q44 59 103 59t103 -59l73 -99q24 -32 24 -53q0 -39 -42 -39z" />
    <glyph glyph-name="Otilde" unicode="&#xd5;" horiz-adv-x="1127" 
d="M560 -158q-147 0 -259.5 75.5t-176.5 225.5t-64 374q0 252 64.5 447.5t190 307t309.5 111.5q225 0 331 -243q88 -202 88 -507q0 -334 -108 -547q-123 -244 -375 -244zM611 -14q137 0 219 178q36 78 56 167q37 163 37 302q0 216 -43.5 348t-106.5 192.5t-123 60.5
q-74 0 -137.5 -81t-102 -236.5t-38.5 -415.5q0 -515 239 -515zM428 1521q-40 0 -40 51q0 109 99 109q53 0 106.5 -33t86.5 -33q24 0 30 38.5t38 38.5q40 0 40 -51q0 -114 -99 -114q-53 0 -106.5 32.5t-86.5 32.5q-24 0 -30 -35.5t-38 -35.5z" />
    <glyph glyph-name="Odieresis" unicode="&#xd6;" horiz-adv-x="1127" 
d="M560 -158q-147 0 -259.5 75.5t-176.5 225.5t-64 374q0 252 64.5 447.5t190 307t309.5 111.5q225 0 331 -243q88 -202 88 -507q0 -334 -108 -547q-123 -244 -375 -244zM611 -14q137 0 219 178q36 78 56 167q37 163 37 302q0 216 -43.5 348t-106.5 192.5t-123 60.5
q-74 0 -137.5 -81t-102 -236.5t-38.5 -415.5q0 -515 239 -515zM455 1500q-110 0 -110 100t110 100t110 -100t-110 -100zM735 1500q-110 0 -110 100t110 100t110 -100t-110 -100z" />
    <glyph glyph-name="multiply" unicode="&#xd7;" horiz-adv-x="786" 
d="M683 262q-29 0 -73 44l-183 185q-16 16 -33 16q-18 0 -38 -20l-180 -181q-44 -44 -72 -44q-14 0 -24 10t-10 24q0 28 44 73l180 180q19 19 19 38t-19 37l-184 185q-40 41 -40 69q0 14 10.5 24t24.5 10q27 0 67 -40l184 -186q21 -21 39 -21q14 0 27 13l192 194
q40 40 68 40q14 0 24 -10t10 -24q0 -28 -40 -69l-192 -193q-13 -13 -13 -28q0 -17 18 -35l183 -184q44 -45 44 -73q0 -14 -10 -24t-23 -10z" />
    <glyph glyph-name="Oslash" unicode="&#xd8;" horiz-adv-x="1129" 
d="M612 -14q137 0 219 178q36 78 56 167q37 163 37 302q0 235 -56 383l-456 -846q57 -184 200 -184zM383 312l430 814q-18 28 -39 48q-63 60 -123 60q-74 0 -137.5 -81t-102 -236.5t-38.5 -415.5q0 -105 10 -189zM162 -202q-22 0 -22 24q0 28 36 98l39 74q-154 180 -154 523
q0 252 64.5 447.5t190 307t309.5 111.5q160 0 259 -122l19 35q56 105 111 105q26 0 26 -28q0 -36 -45 -120l-49 -91q98 -214 98 -529q0 -334 -108 -547q-123 -244 -375 -244q-161 0 -278 89l-21 -39q-51 -94 -100 -94z" />
    <glyph glyph-name="Ugrave" unicode="&#xd9;" horiz-adv-x="1173" 
d="M588 -159q-380 0 -470 448q-32 158 -32 382q0 137 18 380q13 168 44 246q40 103 154 103q84 0 95 -122q6 -61 6 -120q0 -58 -5 -115q-13 -150 -13 -343q0 -294 47 -474q61 -237 206 -237q71 0 119 59q137 168 137 756q0 134 -8.5 260.5t-8.5 252.5q0 83 83 83
q78 0 86 -85q27 -276 27 -534q0 -491 -138 -733q-118 -207 -347 -207zM629 1500q-30 0 -130 69t-100 115q0 26 16 46t46 20q76 0 187 -157q23 -33 23 -54q0 -39 -42 -39z" />
    <glyph glyph-name="Uacute" unicode="&#xda;" horiz-adv-x="1173" 
d="M588 -159q-380 0 -470 448q-32 158 -32 382q0 137 18 380q13 168 44 246q40 103 154 103q84 0 95 -122q6 -61 6 -120q0 -58 -5 -115q-13 -150 -13 -343q0 -294 47 -474q61 -237 206 -237q71 0 119 59q137 168 137 756q0 134 -8.5 260.5t-8.5 252.5q0 83 83 83
q78 0 86 -85q27 -276 27 -534q0 -491 -138 -733q-118 -207 -347 -207zM532 1500q-42 0 -42 39q0 21 23 54q111 157 187 157q30 0 46 -20t16 -46q0 -46 -100 -115t-130 -69z" />
    <glyph glyph-name="Ucircumflex" unicode="&#xdb;" horiz-adv-x="1173" 
d="M588 -159q-380 0 -470 448q-32 158 -32 382q0 137 18 380q13 168 44 246q40 103 154 103q84 0 95 -122q6 -61 6 -120q0 -58 -5 -115q-13 -150 -13 -343q0 -294 47 -474q61 -237 206 -237q71 0 119 59q137 168 137 756q0 134 -8.5 260.5t-8.5 252.5q0 83 83 83
q78 0 86 -85q27 -276 27 -534q0 -491 -138 -733q-118 -207 -347 -207zM739 1500q-30 0 -63.5 40.5t-67.5 79.5q-14 16 -28 16q-12 0 -26 -16q-34 -40 -67.5 -80t-63.5 -40q-42 0 -42 39q0 21 24 53l73 99q44 59 103 59t103 -59l73 -99q24 -32 24 -53q0 -39 -42 -39z" />
    <glyph glyph-name="Udieresis" unicode="&#xdc;" horiz-adv-x="1173" 
d="M588 -159q-380 0 -470 448q-32 158 -32 382q0 137 18 380q13 168 44 246q40 103 154 103q84 0 95 -122q6 -61 6 -120q0 -58 -5 -115q-13 -150 -13 -343q0 -294 47 -474q61 -237 206 -237q71 0 119 59q137 168 137 756q0 134 -8.5 260.5t-8.5 252.5q0 83 83 83
q78 0 86 -85q27 -276 27 -534q0 -491 -138 -733q-118 -207 -347 -207zM441 1500q-110 0 -110 100t110 100t110 -100t-110 -100zM721 1500q-110 0 -110 100t110 100t110 -100t-110 -100z" />
    <glyph glyph-name="Yacute" unicode="&#xdd;" horiz-adv-x="1135" 
d="M497 -210q-207 0 -279 139q-36 69 -36 146q0 111 72 111q42 0 42 -67q0 -82 46 -136.5t130 -54.5q242 0 263 398q4 90 4 147q0 32 -8 32q-10 0 -32 -32q-96 -142 -266 -142q-210 0 -291 187q-60 138 -60 372q0 220 15 379q11 111 146 111q145 0 145 -122q0 -9 -11 -99
q-25 -195 -25 -446q0 -244 131 -244q112 0 169 132q60 141 60 299q0 57 -5 170.5t-5 176.5q0 137 120 137q114 0 154 -98q31 -74 45 -256.5t14 -479.5q0 -369 -132 -564.5t-406 -195.5zM510 1500q-42 0 -42 39q0 21 23 54q111 157 187 157q30 0 46 -20t16 -46
q0 -46 -100 -115t-130 -69z" />
    <glyph glyph-name="Thorn" unicode="&#xde;" horiz-adv-x="1110" 
d="M261 -359q-165 0 -165 568l1 217q0 255 28 625q13 168 44 246q40 103 154 103q84 0 95 -122q6 -61 6 -120v-104q0 -48 15 -48q11 0 30 20q155 162 354 162q106 0 171 -48q114 -84 114 -279q0 -126 -52 -234q-101 -207 -334 -340q-134 -76 -269 -107q-65 -14 -65 -68v-223
q0 -248 -127 -248zM430 276q14 0 31 6q115 40 209 128q81 76 130 183.5t49 240.5q0 44 -10.5 96t-36.5 89.5t-73 37.5q-156 0 -255 -204q-50 -102 -64 -206q-21 -156 -21 -325q0 -46 41 -46z" />
    <glyph glyph-name="germandbls" unicode="&#xdf;" horiz-adv-x="889" 
d="M737 1290q0 -148 -52 -326t-52 -295q0 -130 115.5 -270t115.5 -276q0 -150 -74 -225.5t-167 -75.5q-65 0 -115 50t-50 152q0 75 42 75t42 -70q0 -41 18.5 -63t43.5 -22q50 0 74 45t24 115q0 93 -137 244t-137 288q0 133 93.5 337.5t93.5 331.5q0 54 -19.5 90.5
t-63.5 36.5q-103 0 -127 -170q-28 -229 -28 -526q0 -193 13 -402q9 -135 9 -170q0 -95 -38 -145t-105 -50q-62 0 -89 83q-36 110 -49 368q-4 89 -4 291q0 46 3.5 91t3.5 66q0 14 -7 14q-9 0 -46 -26q-7 -5 -16 -5q-21 0 -31 24q-4 10 -4 22q0 25 19 39q30 22 61 38
q39 20 45 62q46 336 133.5 450t215.5 114q130 0 188 -82.5t58 -227.5z" />
    <glyph glyph-name="agrave" unicode="&#xe0;" horiz-adv-x="860" 
d="M723 -96q-161 0 -199 303q-8 67 -11 171q-1 43 -8 43q-10 0 -21 -44.5t-26 -92.5q-32 -103 -82.5 -166t-133.5 -63q-81 0 -133.5 97.5t-52.5 317.5q0 211 64.5 348t188.5 137q88 0 154 -78q16 -18 29 -18q20 0 36 39q35 88 116 88q115 0 115 -122q0 -33 -7 -131
q-15 -233 -15 -407q0 -208 62 -311q15 -25 15 -44q0 -25 -21 -41q-33 -26 -70 -26zM323 233q25 0 43.5 40t34.5 107t32 150q12 62 26 127q6 29 6 52q-1 24 -10 39q-37 60 -93 60q-38 0 -61.5 -59t-34.5 -148t-11 -179q0 -189 68 -189zM484 1100q-30 0 -130 69t-100 115
q0 26 16 46t46 20q76 0 187 -157q23 -33 23 -54q0 -39 -42 -39z" />
    <glyph glyph-name="aacute" unicode="&#xe1;" horiz-adv-x="860" 
d="M723 -96q-161 0 -199 303q-8 67 -11 171q-1 43 -8 43q-10 0 -21 -44.5t-26 -92.5q-32 -103 -82.5 -166t-133.5 -63q-81 0 -133.5 97.5t-52.5 317.5q0 211 64.5 348t188.5 137q88 0 154 -78q16 -18 29 -18q20 0 36 39q35 88 116 88q115 0 115 -122q0 -33 -7 -131
q-15 -233 -15 -407q0 -208 62 -311q15 -25 15 -44q0 -25 -21 -41q-33 -26 -70 -26zM323 233q25 0 43.5 40t34.5 107t32 150q12 62 26 127q6 29 6 52q-1 24 -10 39q-37 60 -93 60q-38 0 -61.5 -59t-34.5 -148t-11 -179q0 -189 68 -189zM386 1100q-42 0 -42 39q0 21 23 54
q111 157 187 157q30 0 46 -20t16 -46q0 -46 -100 -115t-130 -69z" />
    <glyph glyph-name="acircumflex" unicode="&#xe2;" horiz-adv-x="860" 
d="M723 -96q-161 0 -199 303q-8 67 -11 171q-1 43 -8 43q-10 0 -21 -44.5t-26 -92.5q-32 -103 -82.5 -166t-133.5 -63q-81 0 -133.5 97.5t-52.5 317.5q0 211 64.5 348t188.5 137q88 0 154 -78q16 -18 29 -18q20 0 36 39q35 88 116 88q115 0 115 -122q0 -33 -7 -131
q-15 -233 -15 -407q0 -208 62 -311q15 -25 15 -44q0 -25 -21 -41q-33 -26 -70 -26zM323 233q25 0 43.5 40t34.5 107t32 150q12 62 26 127q6 29 6 52q-1 24 -10 39q-37 60 -93 60q-38 0 -61.5 -59t-34.5 -148t-11 -179q0 -189 68 -189zM593 1100q-30 0 -63.5 40.5t-67.5 79.5
q-14 16 -28 16q-12 0 -26 -16q-34 -40 -67.5 -80t-63.5 -40q-42 0 -42 39q0 21 24 53l73 99q44 59 103 59t103 -59l73 -99q24 -32 24 -53q0 -39 -42 -39z" />
    <glyph glyph-name="atilde" unicode="&#xe3;" horiz-adv-x="860" 
d="M723 -96q-161 0 -199 303q-8 67 -11 171q-1 43 -8 43q-10 0 -21 -44.5t-26 -92.5q-32 -103 -82.5 -166t-133.5 -63q-81 0 -133.5 97.5t-52.5 317.5q0 211 64.5 348t188.5 137q88 0 154 -78q16 -18 29 -18q20 0 36 39q35 88 116 88q115 0 115 -122q0 -33 -7 -131
q-15 -233 -15 -407q0 -208 62 -311q15 -25 15 -44q0 -25 -21 -41q-33 -26 -70 -26zM323 233q25 0 43.5 40t34.5 107t32 150q12 62 26 127q6 29 6 52q-1 24 -10 39q-37 60 -93 60q-38 0 -61.5 -59t-34.5 -148t-11 -179q0 -189 68 -189zM275 1121q-40 0 -40 51q0 109 99 109
q53 0 106.5 -33t86.5 -33q24 0 30 38.5t38 38.5q40 0 40 -51q0 -114 -99 -114q-53 0 -106.5 32.5t-86.5 32.5q-24 0 -30 -35.5t-38 -35.5z" />
    <glyph glyph-name="adieresis" unicode="&#xe4;" horiz-adv-x="860" 
d="M723 -96q-161 0 -199 303q-8 67 -11 171q-1 43 -8 43q-10 0 -21 -44.5t-26 -92.5q-32 -103 -82.5 -166t-133.5 -63q-81 0 -133.5 97.5t-52.5 317.5q0 211 64.5 348t188.5 137q88 0 154 -78q16 -18 29 -18q20 0 36 39q35 88 116 88q115 0 115 -122q0 -33 -7 -131
q-15 -233 -15 -407q0 -208 62 -311q15 -25 15 -44q0 -25 -21 -41q-33 -26 -70 -26zM323 233q25 0 43.5 40t34.5 107t32 150q12 62 26 127q6 29 6 52q-1 24 -10 39q-37 60 -93 60q-38 0 -61.5 -59t-34.5 -148t-11 -179q0 -189 68 -189zM295 1100q-110 0 -110 100t110 100
t110 -100t-110 -100zM575 1100q-110 0 -110 100t110 100t110 -100t-110 -100z" />
    <glyph glyph-name="aring" unicode="&#xe5;" horiz-adv-x="860" 
d="M723 -96q-161 0 -199 303q-8 67 -11 171q-1 43 -8 43q-10 0 -21 -44.5t-26 -92.5q-32 -103 -82.5 -166t-133.5 -63q-81 0 -133.5 97.5t-52.5 317.5q0 211 64.5 348t188.5 137q88 0 154 -78q16 -18 29 -18q20 0 36 39q35 88 116 88q115 0 115 -122q0 -33 -7 -131
q-15 -233 -15 -407q0 -208 62 -311q15 -25 15 -44q0 -25 -21 -41q-33 -26 -70 -26zM323 233q25 0 43.5 40t34.5 107t32 150q12 62 26 127q6 29 6 52q-1 24 -10 39q-37 60 -93 60q-38 0 -61.5 -59t-34.5 -148t-11 -179q0 -189 68 -189zM435 1050q-61 0 -104.5 43.5
t-43.5 108.5q0 61 43.5 104.5t104.5 43.5t104.5 -43.5t43.5 -104.5q0 -65 -43.5 -108.5t-104.5 -43.5zM435 1136q26 0 44.5 18.5t18.5 46.5q0 26 -18.5 45t-44.5 19t-45 -19t-19 -45q0 -28 19 -46.5t45 -18.5z" />
    <glyph glyph-name="ae" unicode="&#xe6;" horiz-adv-x="1147" 
d="M773 541q115 0 154 108q16 44 16 83q0 84 -61 84q-74 0 -108 -106q-25 -81 -25 -140q0 -29 24 -29zM323 233q45 0 186 373q11 30 11 57q0 28 -12 46q-65 99 -146 99q-38 0 -61.5 -59t-34.5 -148t-11 -179q0 -189 68 -189zM818 -30q-48 0 -92 21q-104 52 -159 193
q-25 62 -34 144q-5 36 -12 36q-8 0 -21 -29q-123 -280 -258 -280q-81 0 -133.5 97.5t-52.5 317.5q0 211 64.5 348t188.5 137q133 0 247 -126q18 -21 34 -21q20 0 38 30q23 37 53 67q79 83 171 83q74 0 116.5 -31t63.5 -82.5t21 -112.5q0 -92 -31 -166t-93 -118
q-55 -39 -159 -43q-24 -1 -24 -27q0 -113 34 -199q36 -93 98 -93q52 0 95 46q35 38 77 105q20 31 40 31q37 0 37 -40q0 -44 -41 -112q-105 -176 -268 -176z" />
    <glyph glyph-name="ccedilla" unicode="&#xe7;" horiz-adv-x="662" 
d="M286 -400q-64 0 -64 48q0 29 39 36q126 22 126 104q0 52 -74 80q-39 15 -39 42q0 14 29 55q4 6 4 10q0 7 -9 9q-246 63 -246 528q0 125 40 235q37 104 108.5 171.5t175.5 67.5q77 0 132 -55.5t55 -158.5q0 -45 -18 -87t-51 -42q-15 0 -23.5 13t-8.5 55q0 36 -13 63
t-40 27q-55 0 -86 -59q-44 -83 -44 -213q0 -233 37 -315.5t109 -82.5q64 0 115 78t72 78q17 0 28.5 -13t11.5 -31q0 -88 -77 -177q-59 -68 -150 -85q-32 -6 -42 -21q-20 -33 -20 -38q0 -12 15 -18q105 -43 105 -142q0 -63 -56.5 -112.5t-140.5 -49.5z" />
    <glyph glyph-name="egrave" unicode="&#xe8;" horiz-adv-x="668" 
d="M296 541q115 0 154 108q16 44 16 83q0 104 -61 104q-74 0 -110 -125q-23 -82 -23 -141q0 -29 24 -29zM341 -30q-75 0 -142 53t-109 160.5t-42 239.5q0 140 38 269.5t117.5 212.5t171.5 83q74 0 116.5 -31t63.5 -82.5t21 -112.5q0 -92 -31 -166t-93 -118q-55 -39 -159 -43
q-24 -1 -24 -27q0 -113 33 -199q37 -93 99 -93q52 0 95 46q35 38 77 105q19 31 40 31q37 0 37 -40q0 -44 -41 -112q-105 -176 -268 -176zM398 1100q-30 0 -130 69t-100 115q0 26 16 46t46 20q76 0 187 -157q23 -33 23 -54q0 -39 -42 -39z" />
    <glyph glyph-name="eacute" unicode="&#xe9;" horiz-adv-x="668" 
d="M296 541q115 0 154 108q16 44 16 83q0 104 -61 104q-74 0 -110 -125q-23 -82 -23 -141q0 -29 24 -29zM341 -30q-75 0 -142 53t-109 160.5t-42 239.5q0 140 38 269.5t117.5 212.5t171.5 83q74 0 116.5 -31t63.5 -82.5t21 -112.5q0 -92 -31 -166t-93 -118q-55 -39 -159 -43
q-24 -1 -24 -27q0 -113 33 -199q37 -93 99 -93q52 0 95 46q35 38 77 105q19 31 40 31q37 0 37 -40q0 -44 -41 -112q-105 -176 -268 -176zM300 1100q-42 0 -42 39q0 21 23 54q111 157 187 157q30 0 46 -20t16 -46q0 -46 -100 -115t-130 -69z" />
    <glyph glyph-name="ecircumflex" unicode="&#xea;" horiz-adv-x="668" 
d="M296 541q115 0 154 108q16 44 16 83q0 104 -61 104q-74 0 -110 -125q-23 -82 -23 -141q0 -29 24 -29zM341 -30q-75 0 -142 53t-109 160.5t-42 239.5q0 140 38 269.5t117.5 212.5t171.5 83q74 0 116.5 -31t63.5 -82.5t21 -112.5q0 -92 -31 -166t-93 -118q-55 -39 -159 -43
q-24 -1 -24 -27q0 -113 33 -199q37 -93 99 -93q52 0 95 46q35 38 77 105q19 31 40 31q37 0 37 -40q0 -44 -41 -112q-105 -176 -268 -176zM529 1100q-30 0 -63.5 40.5t-67.5 79.5q-14 16 -28 16q-12 0 -26 -16q-34 -40 -67.5 -80t-63.5 -40q-42 0 -42 39q0 21 24 53l73 99
q44 59 103 59t103 -59l73 -99q24 -32 24 -53q0 -39 -42 -39z" />
    <glyph glyph-name="edieresis" unicode="&#xeb;" horiz-adv-x="668" 
d="M296 541q115 0 154 108q16 44 16 83q0 104 -61 104q-74 0 -110 -125q-23 -82 -23 -141q0 -29 24 -29zM341 -30q-75 0 -142 53t-109 160.5t-42 239.5q0 140 38 269.5t117.5 212.5t171.5 83q74 0 116.5 -31t63.5 -82.5t21 -112.5q0 -92 -31 -166t-93 -118q-55 -39 -159 -43
q-24 -1 -24 -27q0 -113 33 -199q37 -93 99 -93q52 0 95 46q35 38 77 105q19 31 40 31q37 0 37 -40q0 -44 -41 -112q-105 -176 -268 -176zM209 1100q-110 0 -110 100t110 100t110 -100t-110 -100zM489 1100q-110 0 -110 100t110 100t110 -100t-110 -100z" />
    <glyph glyph-name="igrave" unicode="&#xec;" horiz-adv-x="427" 
d="M276 -38q-137 0 -176 205q-23 125 -23 315q0 175 12 309q16 169 106 169q47 0 83 -39t36 -115q0 -39 -6 -103q-17 -176 -17 -308q0 -181 45 -312q11 -31 11 -57q0 -64 -71 -64zM261 1100q-30 0 -130 69t-100 115q0 26 16 46t46 20q76 0 187 -157q23 -33 23 -54
q0 -39 -42 -39z" />
    <glyph glyph-name="iacute" unicode="&#xed;" horiz-adv-x="427" 
d="M276 -38q-137 0 -176 205q-23 125 -23 315q0 175 12 309q16 169 106 169q47 0 83 -39t36 -115q0 -39 -6 -103q-17 -176 -17 -308q0 -181 45 -312q11 -31 11 -57q0 -64 -71 -64zM164 1100q-42 0 -42 39q0 21 23 54q111 157 187 157q30 0 46 -20t16 -46q0 -46 -100 -115
t-130 -69z" />
    <glyph glyph-name="icircumflex" unicode="&#xee;" horiz-adv-x="427" 
d="M276 -38q-137 0 -176 205q-23 125 -23 315q0 175 12 309q16 169 106 169q47 0 83 -39t36 -115q0 -39 -6 -103q-17 -176 -17 -308q0 -181 45 -312q11 -31 11 -57q0 -64 -71 -64zM371 1100q-30 0 -63.5 40.5t-67.5 79.5q-14 16 -28 16q-12 0 -26 -16q-34 -40 -67.5 -80
t-63.5 -40q-42 0 -42 39q0 21 24 53l73 99q44 59 103 59t103 -59l73 -99q24 -32 24 -53q0 -39 -42 -39z" />
    <glyph glyph-name="idieresis" unicode="&#xef;" horiz-adv-x="427" 
d="M276 -38q-137 0 -176 205q-23 125 -23 315q0 175 12 309q16 169 106 169q47 0 83 -39t36 -115q0 -39 -6 -103q-17 -176 -17 -308q0 -181 45 -312q11 -31 11 -57q0 -64 -71 -64zM73 1100q-110 0 -110 100t110 100t110 -100t-110 -100zM353 1100q-110 0 -110 100t110 100
t110 -100t-110 -100z" />
    <glyph glyph-name="eth" unicode="&#xf0;" horiz-adv-x="841" 
d="M293 220q50 0 100 129q68 172 68 252q0 51 -25 87q-36 54 -88 54q-38 0 -61.5 -59.5t-34 -148.5t-10.5 -178q0 -65 15 -100.5t36 -35.5zM688 -183q-55 0 -106.5 55.5t-84.5 186.5q-14 53 -22 122q-5 48 -18 48q-10 0 -25 -27q-87 -156 -203 -156q-35 0 -79 28.5
t-76 105.5t-32 224q0 206 77 348q73 135 176 135q76 0 140 -62q12 -12 18 -12q7 0 7 19q0 272 -32 451l-91 -42q-33 -15 -54 -15q-26 0 -36 21q-4 8 -4 16q0 31 57.5 58t114.5 54q-13 72 -13 98q0 44 14 78q19 49 64 49q72 0 117 -141l98 46q36 17 60 17q26 0 36 -21
q3 -8 3 -15q0 -32 -62 -61l-109 -51q77 -287 77 -589v-489q0 -239 78 -345q22 -29 22 -58q0 -39 -44 -60q-33 -16 -68 -16z" />
    <glyph glyph-name="ntilde" unicode="&#xf1;" horiz-adv-x="870" 
d="M725 -109q-78 0 -113 61q-44 76 -44 237q0 107 10 238q7 101 7 174q0 220 -38 220q-44 0 -93 -181.5t-73 -351.5q-13 -90 -23 -134q-25 -105 -115 -105q-119 0 -155 140q-24 92 -24 267q0 219 9 306t43.5 117.5t80.5 30.5q100 0 100 -123q0 -138 -10 -229t-10 -218
q0 -59 11 -59q7 0 17 57q49 294 114 477t186 183q85 0 123.5 -84t38.5 -253q0 -257 -4 -354q-4 -80 -4 -156q0 -119 26 -181q7 -17 7 -31q0 -48 -67 -48zM268 1121q-40 0 -40 51q0 109 99 109q53 0 106.5 -33t86.5 -33q24 0 30 38.5t38 38.5q40 0 40 -51q0 -114 -99 -114
q-53 0 -106.5 32.5t-86.5 32.5q-24 0 -30 -35.5t-38 -35.5z" />
    <glyph glyph-name="ograve" unicode="&#xf2;" horiz-adv-x="764" 
d="M412 101q85 1 130 117.5t45 253.5q0 181 -40 283t-95 102q-73 0 -122.5 -134t-49.5 -310q0 -134 37 -223t95 -89zM381 -34q-175 0 -273 185q-56 105 -56 266q0 228 58 357q102 226 287 226q293 0 293 -528q0 -268 -91.5 -387t-217.5 -119zM420 1100q-30 0 -130 69
t-100 115q0 26 16 46t46 20q76 0 187 -157q23 -33 23 -54q0 -39 -42 -39z" />
    <glyph glyph-name="oacute" unicode="&#xf3;" horiz-adv-x="764" 
d="M412 101q85 1 130 117.5t45 253.5q0 181 -40 283t-95 102q-73 0 -122.5 -134t-49.5 -310q0 -134 37 -223t95 -89zM381 -34q-175 0 -273 185q-56 105 -56 266q0 228 58 357q102 226 287 226q293 0 293 -528q0 -268 -91.5 -387t-217.5 -119zM322 1100q-42 0 -42 39
q0 21 23 54q111 157 187 157q30 0 46 -20t16 -46q0 -46 -100 -115t-130 -69z" />
    <glyph glyph-name="ocircumflex" unicode="&#xf4;" horiz-adv-x="764" 
d="M412 101q85 1 130 117.5t45 253.5q0 181 -40 283t-95 102q-73 0 -122.5 -134t-49.5 -310q0 -134 37 -223t95 -89zM381 -34q-175 0 -273 185q-56 105 -56 266q0 228 58 357q102 226 287 226q293 0 293 -528q0 -268 -91.5 -387t-217.5 -119zM568 1100q-30 0 -63.5 40.5
t-67.5 79.5q-14 16 -28 16q-12 0 -26 -16q-34 -40 -67.5 -80t-63.5 -40q-42 0 -42 39q0 21 24 53l73 99q44 59 103 59t103 -59l73 -99q24 -32 24 -53q0 -39 -42 -39z" />
    <glyph glyph-name="otilde" unicode="&#xf5;" horiz-adv-x="764" 
d="M412 101q85 1 130 117.5t45 253.5q0 181 -40 283t-95 102q-73 0 -122.5 -134t-49.5 -310q0 -134 37 -223t95 -89zM381 -34q-175 0 -273 185q-56 105 -56 266q0 228 58 357q102 226 287 226q293 0 293 -528q0 -268 -91.5 -387t-217.5 -119zM211 1121q-40 0 -40 51
q0 109 99 109q53 0 106.5 -33t86.5 -33q24 0 30 38.5t38 38.5q40 0 40 -51q0 -114 -99 -114q-53 0 -106.5 32.5t-86.5 32.5q-24 0 -30 -35.5t-38 -35.5z" />
    <glyph glyph-name="odieresis" unicode="&#xf6;" horiz-adv-x="764" 
d="M412 101q85 1 130 117.5t45 253.5q0 181 -40 283t-95 102q-73 0 -122.5 -134t-49.5 -310q0 -134 37 -223t95 -89zM381 -34q-175 0 -273 185q-56 105 -56 266q0 228 58 357q102 226 287 226q293 0 293 -528q0 -268 -91.5 -387t-217.5 -119zM231 1100q-110 0 -110 100
t110 100t110 -100t-110 -100zM511 1100q-110 0 -110 100t110 100t110 -100t-110 -100z" />
    <glyph glyph-name="divide" unicode="&#xf7;" horiz-adv-x="740" 
d="M585 543h-436q-79 0 -79 44t79 44h436q85 0 85 -44t-85 -44zM370 128q-110 0 -110 100t110 100t110 -100t-110 -100zM370 846q-110 0 -110 100t110 100t110 -100t-110 -100z" />
    <glyph glyph-name="oslash" unicode="&#xf8;" horiz-adv-x="764" 
d="M232 8q-73 46 -124 143q-56 105 -56 266q0 228 57.5 357t129.5 129q18 0 32 -6q8 -3 13 -3q13 0 24 19q47 85 129 85q56 0 100 -26l16 52q26 84 70 84q27 0 27 -38q0 -28 -17 -81q-13 -39 -27 -85q84 -128 84 -432q0 -268 -91.5 -387t-217.5 -119q-41 0 -78 10
q-12 -37 -25 -76q-25 -75 -64 -75q-22 0 -22 32q0 24 13 66zM554 745q-81 -248 -201 -615q26 -29 59 -29q175 1 175 371q0 181 -33 273zM302 231l189 597q-18 9 -39 9q-85 0 -128.5 -102.5t-43.5 -321.5q0 -104 22 -182z" />
    <glyph glyph-name="ugrave" unicode="&#xf9;" horiz-adv-x="873" 
d="M741 -38q-151 0 -190 314q-5 41 -13 41t-23 -40q-82 -222 -210 -222q-152 0 -209 212q-36 135 -36 326q0 123 13 228q16 126 108 126q46 0 80 -30.5t34 -82.5q0 -29 -6 -99t-9.5 -140t-3.5 -125q0 -237 65 -237q67 0 128 229q55 204 65 398q6 114 105 114q69 0 102.5 -50
t33.5 -126q0 -32 -4 -92q-16 -230 -16 -356q0 -186 41 -304q5 -14 5 -28q0 -29 -18 -42.5t-42 -13.5zM480 1100q-30 0 -130 69t-100 115q0 26 16 46t46 20q76 0 187 -157q23 -33 23 -54q0 -39 -42 -39z" />
    <glyph glyph-name="uacute" unicode="&#xfa;" horiz-adv-x="873" 
d="M741 -38q-151 0 -190 314q-5 41 -13 41t-23 -40q-82 -222 -210 -222q-152 0 -209 212q-36 135 -36 326q0 123 13 228q16 126 108 126q46 0 80 -30.5t34 -82.5q0 -29 -6 -99t-9.5 -140t-3.5 -125q0 -237 65 -237q67 0 128 229q55 204 65 398q6 114 105 114q69 0 102.5 -50
t33.5 -126q0 -32 -4 -92q-16 -230 -16 -356q0 -186 41 -304q5 -14 5 -28q0 -29 -18 -42.5t-42 -13.5zM383 1100q-42 0 -42 39q0 21 23 54q111 157 187 157q30 0 46 -20t16 -46q0 -46 -100 -115t-130 -69z" />
    <glyph glyph-name="ucircumflex" unicode="&#xfb;" horiz-adv-x="873" 
d="M741 -38q-151 0 -190 314q-5 41 -13 41t-23 -40q-82 -222 -210 -222q-152 0 -209 212q-36 135 -36 326q0 123 13 228q16 126 108 126q46 0 80 -30.5t34 -82.5q0 -29 -6 -99t-9.5 -140t-3.5 -125q0 -237 65 -237q67 0 128 229q55 204 65 398q6 114 105 114q69 0 102.5 -50
t33.5 -126q0 -32 -4 -92q-16 -230 -16 -356q0 -186 41 -304q5 -14 5 -28q0 -29 -18 -42.5t-42 -13.5zM590 1100q-30 0 -63.5 40.5t-67.5 79.5q-14 16 -28 16q-12 0 -26 -16q-34 -40 -67.5 -80t-63.5 -40q-42 0 -42 39q0 21 24 53l73 99q44 59 103 59t103 -59l73 -99
q24 -32 24 -53q0 -39 -42 -39z" />
    <glyph glyph-name="udieresis" unicode="&#xfc;" horiz-adv-x="873" 
d="M741 -38q-151 0 -190 314q-5 41 -13 41t-23 -40q-82 -222 -210 -222q-152 0 -209 212q-36 135 -36 326q0 123 13 228q16 126 108 126q46 0 80 -30.5t34 -82.5q0 -29 -6 -99t-9.5 -140t-3.5 -125q0 -237 65 -237q67 0 128 229q55 204 65 398q6 114 105 114q69 0 102.5 -50
t33.5 -126q0 -32 -4 -92q-16 -230 -16 -356q0 -186 41 -304q5 -14 5 -28q0 -29 -18 -42.5t-42 -13.5zM292 1100q-110 0 -110 100t110 100t110 -100t-110 -100zM572 1100q-110 0 -110 100t110 100t110 -100t-110 -100z" />
    <glyph glyph-name="yacute" unicode="&#xfd;" horiz-adv-x="880" 
d="M370 -600q-107 0 -179.5 71t-72.5 204q0 159 74 159q45 0 45 -54q0 -12 -2 -27q-7 -44 -7 -78q0 -122 96 -122q114 0 161 183q43 166 43 278q0 85 -3 182q-1 35 -11 35q-12 0 -31 -39q-64 -137 -173 -137q-83 0 -133 59.5t-75.5 152t-30.5 178.5t-5 148q0 117 16 280
q12 126 105 126q46 0 79.5 -30.5t33.5 -82.5q0 -29 -5.5 -125t-9.5 -168t-4 -131q0 -229 66 -229q70 0 119 173q42 150 42 264q0 66 8 126q18 135 127 135q62 0 89 -83q56 -173 56 -706q0 -158 -33 -305q-27 -126 -75 -218q-113 -219 -310 -219zM378 1100q-42 0 -42 39
q0 21 23 54q111 157 187 157q30 0 46 -20t16 -46q0 -46 -100 -115t-130 -69z" />
    <glyph glyph-name="thorn" unicode="&#xfe;" horiz-adv-x="841" 
d="M420 259q62 0 108 84.5t46 253.5q0 259 -61 259q-70 0 -117.5 -94t-54.5 -221q-4 -80 -4 -114q0 -30 2.5 -69.5t19.5 -64.5q24 -34 61 -34zM212 -600q-103 0 -119 120q-11 91 -11 248q0 68 1 190t7 273.5t20.5 393.5t40 475.5t67 357t90.5 138.5q13 4 25 4q32 0 55 -34
q17 -26 17 -79q0 -44 -11 -105q-9 -49 -21 -220q-5 -63 -10 -120t-5 -113q0 -44 16 -44q14 0 41 28q66 70 139 70q84 0 136 -50.5t69.5 -134.5t17.5 -181q0 -180 -50 -285q-30 -62 -80 -106q-86 -77 -173 -77q-40 0 -70 6t-41 6q-36 0 -38 -110q-3 -169 -3 -361
q0 -290 -110 -290z" />
    <glyph glyph-name="ydieresis" unicode="&#xff;" horiz-adv-x="880" 
d="M370 -600q-107 0 -179.5 71t-72.5 204q0 159 74 159q45 0 45 -54q0 -12 -2 -27q-7 -44 -7 -78q0 -122 96 -122q114 0 161 183q43 166 43 278q0 85 -3 182q-1 35 -11 35q-12 0 -31 -39q-64 -137 -173 -137q-83 0 -133 59.5t-75.5 152t-30.5 178.5t-5 148q0 117 16 280
q12 126 105 126q46 0 79.5 -30.5t33.5 -82.5q0 -29 -5.5 -125t-9.5 -168t-4 -131q0 -229 66 -229q70 0 119 173q42 150 42 264q0 66 8 126q18 135 127 135q62 0 89 -83q56 -173 56 -706q0 -158 -33 -305q-27 -126 -75 -218q-113 -219 -310 -219zM287 1100q-110 0 -110 100
t110 100t110 -100t-110 -100zM567 1100q-110 0 -110 100t110 100t110 -100t-110 -100z" />
    <glyph glyph-name="dotlessi" unicode="&#x131;" horiz-adv-x="427" 
d="M276 -38q-137 0 -176 205q-23 125 -23 315q0 175 12 309q16 169 106 169q47 0 83 -39t36 -115q0 -39 -6 -103q-17 -176 -17 -308q0 -181 45 -312q11 -31 11 -57q0 -64 -71 -64z" />
    <glyph glyph-name="circumflex" unicode="&#x2c6;" horiz-adv-x="540" 
d="M428 1100q-30 0 -63.5 40.5t-67.5 79.5q-14 16 -28 16q-12 0 -26 -16q-34 -40 -67.5 -80t-63.5 -40q-42 0 -42 39q0 21 24 53l73 99q44 59 103 59t103 -59l73 -99q24 -32 24 -53q0 -39 -42 -39z" />
    <glyph glyph-name="caron" unicode="&#x2c7;" horiz-adv-x="540" 
d="M270 1100q-59 0 -103 59l-73 99q-24 32 -24 53q0 39 42 39q30 0 63.5 -39.5t67.5 -80.5q14 -16 26 -16q14 0 28 16q34 39 67.5 79.5t63.5 40.5q42 0 42 -39q0 -21 -24 -53l-73 -99q-44 -59 -103 -59z" />
    <glyph glyph-name="uni02C9" unicode="&#x2c9;" horiz-adv-x="540" 
d="M413 1129h-290q-53 0 -53 44t53 44h290q57 0 57 -44t-57 -44z" />
    <glyph glyph-name="breve" unicode="&#x2d8;" horiz-adv-x="540" 
d="M270 1100q-81 0 -140.5 53t-59.5 107q0 40 36 40q27 0 42 -23q53 -83 122 -83t122 83q15 23 42 23q36 0 36 -40q0 -54 -59.5 -107t-140.5 -53z" />
    <glyph glyph-name="dotaccent" unicode="&#x2d9;" horiz-adv-x="360" 
d="M180 1100q-110 0 -110 100t110 100t110 -100t-110 -100z" />
    <glyph glyph-name="ring" unicode="&#x2da;" horiz-adv-x="436" 
d="M218 1050q-61 0 -104.5 43.5t-43.5 108.5q0 61 43.5 104.5t104.5 43.5t104.5 -43.5t43.5 -104.5q0 -65 -43.5 -108.5t-104.5 -43.5zM218 1136q26 0 44.5 18.5t18.5 46.5q0 26 -18.5 45t-44.5 19t-45 -19t-19 -45q0 -28 19 -46.5t45 -18.5z" />
    <glyph glyph-name="ogonek" unicode="&#x2db;" horiz-adv-x="401" 
d="M267 -400q-84 0 -140.5 49.5t-56.5 132.5q0 97 80 170q102 94 148 94q33 0 33 -24q0 -16 -75 -80q-90 -77 -90 -154q0 -82 126 -104q39 -7 39 -36q0 -48 -64 -48z" />
    <glyph glyph-name="tilde" unicode="&#x2dc;" horiz-adv-x="540" 
d="M110 1121q-40 0 -40 51q0 109 99 109q53 0 106.5 -33t86.5 -33q24 0 30 38.5t38 38.5q40 0 40 -51q0 -114 -99 -114q-53 0 -106.5 32.5t-86.5 32.5q-24 0 -30 -35.5t-38 -35.5z" />
    <glyph glyph-name="hungarumlaut" unicode="&#x2dd;" horiz-adv-x="683" 
d="M112 1100q-42 0 -42 39q0 21 23 54q111 157 187 157q30 0 46 -20t16 -46q0 -46 -100 -115t-130 -69zM384 1100q-42 0 -42 39q0 21 23 54q111 157 187 157q30 0 46 -20t16 -46q0 -46 -100 -115t-130 -69z" />
    <glyph glyph-name="endash" unicode="&#x2013;" horiz-adv-x="1200" 
d="M123 454q-73 0 -73 44t73 44h949q78 0 78 -44t-78 -44h-949z" />
    <glyph glyph-name="emdash" unicode="&#x2014;" horiz-adv-x="1750" 
d="M1622 542q78 0 78 -44t-78 -44h-1499q-73 0 -73 44t73 44h1499z" />
    <glyph glyph-name="quoteleft" unicode="&#x2018;" horiz-adv-x="240" 
d="M192 1400q20 0 29 -9t9 -22q0 -20 -37 -148.5t-37 -213.5q0 -43 42 -86q32 -36 32 -81q0 -100 -110 -100t-110 128q0 119 74 348q59 184 108 184z" />
    <glyph glyph-name="quoteright" unicode="&#x2019;" horiz-adv-x="240" 
d="M48 740q-20 0 -29 9t-9 22q0 20 37 148.5t37 213.5q0 43 -42 86q-32 36 -32 81q0 100 110 100t110 -128q0 -119 -74 -348q-59 -184 -108 -184z" />
    <glyph glyph-name="quotesinglbase" unicode="&#x201a;" horiz-adv-x="270" 
d="M38 -482q-20 0 -29 9t-9 22q0 20 37 148.5t37 213.5q0 43 -42 86q-32 36 -32 81q0 100 110 100t110 -128q0 -119 -74 -348q-59 -184 -108 -184z" />
    <glyph glyph-name="quotedblleft" unicode="&#x201c;" horiz-adv-x="548" 
d="M192 1400q20 0 29 -9t9 -22q0 -20 -37 -148.5t-37 -213.5q0 -43 42 -86q32 -36 32 -81q0 -100 -110 -100t-110 128q0 119 74 348q59 184 108 184zM500 1400q20 0 29 -9t9 -22q0 -20 -37 -148.5t-37 -213.5q0 -43 42 -86q32 -36 32 -81q0 -100 -110 -100t-110 128
q0 119 74 348q59 184 108 184z" />
    <glyph glyph-name="quotedblright" unicode="&#x201d;" horiz-adv-x="548" 
d="M48 740q-20 0 -29 9t-9 22q0 20 37 148.5t37 213.5q0 43 -42 86q-32 36 -32 81q0 100 110 100t110 -128q0 -119 -74 -348q-59 -184 -108 -184zM356 740q-20 0 -29 9t-9 22q0 20 37 148.5t37 213.5q0 43 -42 86q-32 36 -32 81q0 100 110 100t110 -128q0 -119 -74 -348
q-59 -184 -108 -184z" />
    <glyph glyph-name="quotedblbase" unicode="&#x201e;" horiz-adv-x="548" 
d="M48 -330q-20 0 -29 9t-9 22q0 20 37 148.5t37 213.5q0 43 -42 86q-32 36 -32 81q0 100 110 100t110 -128q0 -119 -74 -348q-59 -184 -108 -184zM356 -330q-20 0 -29 9t-9 22q0 20 37 148.5t37 213.5q0 43 -42 86q-32 36 -32 81q0 100 110 100t110 -128q0 -119 -74 -348
q-59 -184 -108 -184z" />
    <glyph glyph-name="dagger" unicode="&#x2020;" horiz-adv-x="760" 
d="M335 -81q-114 0 -122 138q-10 173 -10 289q0 360 27 565q6 49 6 74q0 32 -32 32h-45q-79 0 -79 44t79 44h71q22 0 31.5 10.5t14.5 29.5q60 232 131 252q13 4 25 4q32 0 55 -30q17 -23 17 -71q0 -38 -12 -95.5t-12 -75.5q0 -10 5.5 -17t27.5 -7h82q85 0 85 -44t-85 -44
h-97q-32 0 -35 -33q-20 -227 -20 -707q0 -119 2 -223v-7q0 -128 -110 -128z" />
    <glyph glyph-name="daggerdbl" unicode="&#x2021;" horiz-adv-x="805" 
d="M380 -81q-114 0 -122 138l-5 118q-2 40 -48 40h-46q-79 0 -79 44t79 44h43q46 0 46 49q1 363 27 559q6 49 6 74q0 32 -32 32h-45q-79 0 -79 44t79 44h71q22 0 31.5 10.5t14.5 29.5q60 232 131 252q13 4 25 4q32 0 55 -30q17 -23 17 -71q0 -38 -12 -95.5t-12 -75.5
q0 -10 5.5 -17t27.5 -7h82q85 0 85 -44t-85 -44h-97q-32 0 -35 -33q-19 -210 -20 -630q0 -51 52 -51h55q85 0 85 -44t-85 -44h-61q-46 0 -46 -57l1 -113q0 -126 -109 -126z" />
    <glyph glyph-name="bullet" unicode="&#x2022;" horiz-adv-x="895" 
d="M448 362q-248 0 -248 225t248 225q247 0 247 -225t-247 -225z" />
    <glyph glyph-name="ellipsis" unicode="&#x2026;" horiz-adv-x="2048" 
d="M160 -22q-110 0 -110 100t110 100t110 -100t-110 -100zM843 -22q-110 0 -110 100t110 100t110 -100t-110 -100zM1526 -22q-110 0 -110 100t110 100t110 -100t-110 -100z" />
    <glyph glyph-name="guilsinglleft" unicode="&#x2039;" horiz-adv-x="472" 
d="M334 116q-29 0 -58 51l-160 277q-16 28 -16 55t16 54l160 277q29 50 58 50q10 0 19 -5q19 -11 19 -33t-20 -56l-134 -233q-15 -27 -15 -54t15 -54l134 -234q20 -34 20 -57q0 -21 -19 -32q-9 -6 -19 -6z" />
    <glyph glyph-name="guilsinglright" unicode="&#x203a;" horiz-adv-x="472" 
d="M138 116q-10 0 -19 6q-19 11 -19 32q0 23 20 57l134 234q16 27 16 54t-16 54l-134 233q-20 34 -20 56t19 33q9 5 19 5q29 0 58 -50l160 -277q16 -27 16 -54t-16 -55l-160 -277q-29 -51 -58 -51z" />
    <glyph glyph-name="fraction" unicode="&#x2044;" horiz-adv-x="194" 
d="M-167 -24q-33 0 -33 26q0 14 485 1157q26 60 77 60q32 0 32 -25q0 -14 -485 -1156q-26 -62 -76 -62z" />
    <glyph glyph-name="fraction" unicode="&#x2215;" horiz-adv-x="194" 
d="M-167 -24q-33 0 -33 26q0 14 485 1157q26 60 77 60q32 0 32 -25q0 -14 -485 -1156q-26 -62 -76 -62z" />
    <glyph glyph-name="uni2070" unicode="&#x2070;" horiz-adv-x="514" 
d="M311 533q29 0 46 84q13 64 13 195q0 137 -21 209t-48 72q-74 0 -74 -281q0 -165 24.5 -222t59.5 -57zM275 424q-251 0 -251 388q0 153 59 270.5t192 117.5q64 0 106.5 -25.5t66.5 -64t37.5 -120t13.5 -178.5t-13.5 -178.5t-37 -120t-66 -64t-107.5 -25.5z" />
    <glyph glyph-name="uni2074" unicode="&#x2074;" horiz-adv-x="514" 
d="M245 688v239q0 24 -4 24q-3 0 -10 -24q-65 -230 -65 -249q0 -14 16 -14h45q18 0 18 24zM345 424q-41 0 -70.5 21t-29.5 55v41q0 22 -22 22l-74 1q-128 4 -128 72q0 107 111 338q109 226 207 226q101 0 101 -99v-416q0 -13 5 -18t14 -7q37 -7 37 -45q0 -40 -40 -47
q-7 -1 -11.5 -8t-4.5 -17v-34q0 -43 -30 -64t-65 -21z" />
    <glyph glyph-name="Euro" unicode="&#x20ac;" horiz-adv-x="843" 
d="M483 -26q-279 0 -334 397q-4 30 -10 46t-29 16h-28q-72 0 -72 44t72 44h25q20 0 24.5 10t4.5 43q0 21 -5 34t-27 13h-22q-72 0 -72 44t72 44h33q16 0 22 9t8 26q19 152 75 274q84 182 262 182q156 0 231 -131q33 -58 54 -190q6 -38 6 -73q0 -75 -47 -75q-57 0 -70 104
q-32 254 -134 254q-121 0 -147 -310q-3 -33 -3 -43q0 -27 26 -27h81q77 0 77 -44t-77 -44h-74q-23 0 -29.5 -15t-6.5 -37q0 -30 11 -39t36 -9h63q77 0 77 -44t-77 -44h-67q-25 0 -30 -13.5t-5 -31.5l1 -13q26 -286 160 -286q93 0 119 231q13 109 76 109q40 0 40 -70
q0 -21 -4 -50q-17 -139 -55 -204q-75 -131 -231 -131z" />
    <glyph glyph-name="trademark" unicode="&#x2122;" horiz-adv-x="1030" 
d="M189.055 980.797q-74.252 0 -74.252 227.214q0 94.0059 12.6006 242.015q3.15039 37.2021 9 63.2041q1.7998 8 1.7998 14.001q0 16.4004 -17.0996 16.4004q-6.30078 0 -15.3008 -2q-27.9004 -6 -54.9014 -16.4014q-10.8008 -4.39941 -19.3506 -4.39941
q-6.75 0 -11.7002 2.7998q-10.3506 5.60059 -10.3506 15.6006q0 20.8018 19.3506 28.4023q72.002 29.6016 152.104 32.002q13.9502 0.399414 28.3506 0.399414q99.9023 0 173.255 -27.6016q20.7002 -8 20.7002 -21.2012q0 -15.6006 -5.40039 -20.8018
q-5.39941 -5.2002 -14.4004 -5.2002q-10.3496 0 -20.25 3.60059q-42.751 16.4014 -68.4023 16.4014q-33.3008 0 -40.9512 -115.407q-7.64941 -115.407 -7.64941 -211.813v-138.008q0 -99.2061 -57.1523 -99.2061zM865.964 980.396q-41.4014 0 -41.4014 63.2031
q0 47.2031 3.15039 93.2061q6.2998 93.6055 6.2998 212.813q0 84.4043 -13.0498 84.4043q-8.10059 0 -48.1514 -165.21q-34.2012 -139.608 -104.403 -139.608q-63.4512 0 -90.2275 155.81q-26.7754 155.81 -42.0762 155.81q-9 0 -11.25 -31.6016
q-3.15039 -46.0029 -3.15039 -128.809q0 -103.605 0.450195 -204.012q0 -96.0059 -51.3008 -96.0059q-67.9521 0 -67.9521 227.214q0 30.4014 1.125 82.0049q1.125 51.6025 11.4756 170.01q12.5996 144.409 89.1016 144.409q88.6533 0 151.205 -338.021
q5.84961 -32.8018 15.2998 -32.8018q22.9512 0 85.0527 280.816q16.6504 74.0049 69.3018 74.0049q89.1025 0 89.1025 -341.621q0 -93.6055 -4.5 -187.611q-3.60059 -78.4043 -44.1016 -78.4043z" />
    <glyph glyph-name="minus" unicode="&#x2212;" horiz-adv-x="740" 
d="M585 543h-436q-79 0 -79 44t79 44h436q85 0 85 -44t-85 -44z" />
    <glyph glyph-name="approxequal" unicode="&#x2248;" horiz-adv-x="790" 
d="M234 624q-63 0 -73 -60q-10 -64 -46 -64q-45 0 -45 64q0 166 148 166q86 0 180 -57t158 -57q63 0 73 70q10 64 46 64q45 0 45 -64q0 -176 -148 -176q-86 0 -180 57t-158 57zM234 374q-63 0 -73 -60q-10 -64 -46 -64q-45 0 -45 64q0 166 148 166q86 0 180 -57t158 -57
q63 0 73 70q10 64 46 64q45 0 45 -64q0 -176 -148 -176q-86 0 -180 57t-158 57z" />
    <glyph glyph-name="lessequal" unicode="&#x2264;" horiz-adv-x="810" 
d="M688 132q-26 0 -69 23l-491 252q-48 25 -48 50t49 50l490 252q43 23 70 23q24 0 35 -18q6 -9 6 -17q0 -40 -63 -71l-367 -181q-37 -18 -37 -37q0 -18 37 -37l367 -182q63 -31 63 -71q0 -9 -6 -17q-11 -19 -36 -19zM585 0h-436q-79 0 -79 44t79 44h436q85 0 85 -44
t-85 -44z" />
    <glyph glyph-name="greaterequal" unicode="&#x2265;" horiz-adv-x="810" 
d="M122 132q-25 0 -36 19q-6 8 -6 17q0 40 63 71l367 182q37 19 37 37q0 19 -37 37l-367 181q-63 31 -63 71q0 8 6 17q11 18 35 18q27 0 70 -23l490 -252q49 -25 49 -50t-48 -50l-491 -252q-43 -23 -69 -23zM585 0h-436q-79 0 -79 44t79 44h436q85 0 85 -44t-85 -44z" />
    <glyph glyph-name="uniE007" unicode="&#xe007;" horiz-adv-x="1411" 
d="M667 95q-185 0 -328 149q-89 94 -131 220q-22 66 -22 133q0 201 179 313q39 24 103 43q41 12 74 12q50 0 50 -22q0 -2 -1 -10.5t-31 -11.5q-75 -6 -97 -10q-38 -7 -81 -35q-153 -97 -153 -280q0 -34 12.5 -102.5t76.5 -154.5q31 -43 70 -77q4 5 9 14q12 22 20.5 36
t15.5 14q6 0 6 -15q0 -38 -22 -60q-4 -4 -4 -7q0 -5 20 -18q131 -87 248 -87q31 0 123 16t185 179q54 94 54 193q0 46 -22 142.5t-157 183.5q-84 54 -169 74q-94 23 -94 37q0 9 31 9q157 0 288 -103q126 -100 156 -256q8 -41 8 -80q0 -117 -62.5 -239t-220.5 -176
q-68 -24 -134 -24zM443 1152h-3q-6 0 -9.5 5t-11.5 5q-5 -1 -14 -5t-16 -4q-14 0 -14 14q0 12 17 29q21 23 44 24q2 0 2.5 1t9 9t14.5 8q19 0 19 -35q0 -45 -38 -51zM266 990q-18 0 -35 37q-23 52 -23 111q0 28 12.5 81t97.5 93q31 15 56 15q25 -1 40 -5q9 -3 14 -3t6.5 2.5
t13.5 12.5q47 43 79 81q37 46 82 77q39 27 99 27q52 0 179 -40q100 -32 154 -60q68 -36 98 -80.5t47 -117.5q9 -36 18 -59t29 -55q7 -12 7 -18t-7 -6q-13 0 -36 24.5t-36 73.5q-16 59 -36 96q-17 32 -65 67q-69 51 -174.5 84t-189.5 33q-56 0 -93.5 -32t-70.5 -72
q-21 -25 -43 -47q-11 -11 -11 -17t13.5 -15.5t34.5 -34.5q32 -38 32 -57q0 -14 -16 -14q-11 0 -22 12t-20.5 27t-17.5 23q-49 49 -102 49q-4 0 -34 -2.5t-66 -48.5q-29 -37 -29 -89q0 -15 4 -38q11 -60 24 -60l58 39q118 79 172 79q21 0 34 -14q5 -6 5 -8q0 -4 -31 -8
q-52 -8 -170 -93q-69 -50 -81 -50zM1208 890q-6 0 -15 13q-6 9 -10 13.5t-7 11.5q-19 38 -19 54q0 4 1.5 11t17.5 7q7 0 8.5 -1t27.5 -1q16 0 16 -20l-3 -41q-3 -47 -17 -47zM1200 808q15 0 36 12t30.5 34t9.5 46q0 36 -24 89t-83 72q-15 5 -30 5q-67 0 -104 -51
q-6 -8 -6 -17q0 -17 44 -64q49 -52 63 -70q37 -49 50 -54q7 -2 14 -2zM1207 772q-21 0 -44 14q-34 21 -91 94q-28 35 -60 68q-36 36 -36 56t41 49q70 51 128 51q65 0 111 -56q55 -65 55 -159q0 -117 -104 -117zM618 581q3 0 11 40q16 83 16 136q0 47 -20 86q-1 2 -2 2
q-10 0 -10 -177q0 -87 5 -87zM782 389q0 4 -14 17l-104 103q-11 10 -17 10q-7 0 -7 -8q0 -4 3 -11q47 -82 139 -111zM822 352h-10q-29 0 -65 15q-102 43 -146 147q-17 40 -17 184q0 181 39 181q1 0 10 -1.5t22.5 -26.5t18.5 -48.5t5 -48.5q0 -64 -28 -155q-8 -28 -8 -36
q0 -13 53 -44q34 -20 88 -71t54 -80q0 -14 -16 -16zM294 437q-13 0 -13 10q0 13 21 22q9 4 18 4q25 0 25 -12q0 -9 -19.5 -16.5t-31.5 -7.5zM290 584q-2 0 -9.5 3.5t-14.5 6.5q-33 9 -33 19q0 4 3 8q6 8 18 8q13 0 32 -10.5t19 -21.5q0 -6 -8 -11q-4 -2 -7 -2zM393 728
q-47 0 -47 35q0 13 9 13q6 0 17.5 -13t25.5 -16q10 -1 10 -10t-15 -9zM501 848q-7 0 -25 16q-4 4 -4 8q0 13 17 13q2 0 9 -0.5t15 -14.5q2 -5 2 -9q0 -13 -14 -13zM790 783q-13 0 -13 9q0 7 12 15q7 4 18.5 24.5t18.5 20.5t7 -16q0 -12 -10 -28q-16 -25 -33 -25zM943 622
q-13 0 -13 12q0 16 18 25q4 2 7 4t6 2q10 0 10 -13q0 -14 -19 -27q-5 -3 -9 -3zM1000 467q-10 0 -20.5 2.5t-15.5 3.5q-6 6 -6 12q0 11 15 11q11 0 23 -3q22 -6 22 -14q0 -12 -18 -12zM929 278q-22 0 -47 38q0 18 13 18q11 0 35 -28q10 -13 10 -21q0 -6 -11 -7zM684 159h-2
q-7 5 -12 23q-6 22 -6 40q0 19 11 19q12 0 18 -16t6 -37q0 -29 -15 -29zM169 128q12 0 38 16q39 24 45 47q-9 20 -28 32q-61 -55 -61 -85q0 -10 6 -10zM696 29q91 0 172 41q57 28 96 63q157 139 157 353q0 152 -74 284.5t-216 205.5q-30 15 -50 17q-27 3 -67 22
q-28 13 -54.5 21t-69.5 8q-107 0 -212 -60.5t-175.5 -160t-70.5 -211.5q0 -150 78.5 -281.5t207 -216.5t278.5 -85zM825 -87l-4 31q-8 55 -23 57h-11q-11 0 -11 -6q11 -61 49 -82zM849 -139q-12 0 -32 8q-36 16 -54 47q-20 34 -34 73h-53q-156 1 -274 76q-55 35 -115 91
q-15 13 -18 13q-4 0 -10 -8q-3 -5 -8 -11q-55 -63 -110 -64q-26 0 -26 23q0 25 14 56q27 59 74 90l-29 53q-74 136 -74 291q0 190 137 323q97 93 224 134q67 22 132 22q59 0 116 -19q39 -12 47 -12q6 0 14.5 4t21.5 47q4 13 4 19q0 8 -10 12q-20 9 -20 30q0 24 26 24
q7 0 14.5 -3t13 -7t17 -11t26.5 -16.5t26 -18.5t11 -15q-1 -11 -12 -11q-5 0 -13 2t-16 2q-11 0 -37 -42q-16 -26 -16 -31q0 -4 63 -27q117 -43 187.5 -150t96.5 -237q16 -76 16 -147q0 -50 -9 -98q-49 -255 -292 -348q-9 -4 -16 -8t-16 -9q35 -94 35 -118q0 -29 -22 -29z
" />
    <glyph glyph-name="uniE008" unicode="&#xe008;" horiz-adv-x="1958" 
d="M961 650q-12 0 -22 22q-39 81 -102 115q-71 38 -199 42q-259 9 -259 39q0 9 19 9q8 0 15 -1q44 -3 118 -3q105 0 194 -8q214 -21 250 -184l1 -13q0 -9 -5.5 -13.5t-9.5 -4.5zM1629 373q5 0 32 26q72 65 116 130q41 61 41 153q0 74 -30 203q-25 111 -68 178q-30 47 -80 71
q-29 15 -60 15q-22 0 -45 -8q0 -27 11 -84q5 -33 8 -42q36 34 65 34q73 0 126 -178q28 -98 28 -170q0 -27 -10 -81.5t-88 -169.5q-47 -65 -47 -76q0 -1 1 -1zM1440 -48q8 0 67 31q99 53 99 62q7 116 7 153q0 156 -16 156l-8 -1q-78 -18 -114 -68q-49 -69 -49 -193
q0 -42 8 -96q4 -25 6 -44zM1599 435q19 0 85 109q47 79 47 165q0 103 -36 202q-19 52 -52 77q-16 12 -38 12t-50 -12q3 -55 3 -110q0 -82 -7 -165q-3 -41 -4 -83q0 -52 -11 -147q0 -10 5 -15t25 -19t33 -14zM1366 -73q10 1 23 5q29 8 29 11q0 2 -6 20q-23 68 -23 144
q0 9 1.5 56.5t40.5 117t125 100.5q6 2 14.5 3t12.5 3.5t4 5.5t-2 7q-29 41 -85 41q-63 0 -101 -38t-54 -99t-17 -119v-52q0 -184 13 -197q9 -9 25 -9zM1011 -171q104 0 153 79q63 99 77 316q6 92 6 188t-29.5 183t-76.5 150q-23 30 -44 67q-33 57 -52 176q-9 56 -23.5 106
t-50.5 84q-58 53 -176 73q-147 24 -255 24q-63 0 -120.5 -18t-86.5 -121q-13 -49 -13 -130q0 -67 13 -95q25 3 39 8q94 36 204 36q103 0 225 -13q108 -12 163 -68q81 -83 81 -231q0 -47 -5.5 -84t-15.5 -67t-43 -50q-27 -16 -145 -16q-166 0 -359 17q-123 11 -157 11
q-11 0 -19 -4.5t-16 -64.5q-29 -185 -29 -273q0 -157 70 -208q53 -38 140 -38q57 0 117.5 7.5t114.5 7.5q57 0 151 -25q105 -27 162 -27zM222 20q1 5 1 16q-3 58 -3 99q0 95 35 249q16 66 16 75q0 8 -3 13q-12 17 -23 17q-6 0 -14 -8q-55 -52 -73 -125q-16 -68 -16 -138
q0 -83 11.5 -132.5t68.5 -65.5zM975 469q3 0 5 7q20 81 20 169q0 127 -48.5 186t-177.5 72q-86 9 -278 9q-68 0 -151 -46q-10 -5 -10 -22t-17 -17q-5 0 -9 6t-8 6q-5 0 -11 -4q-11 -7 -11 -11q0 -3 20 -3q61 0 111 -3q32 -2 67 -2q74 -1 159 -9q192 -16 276 -117
q57 -68 57 -165q0 -54 -17 -54q-12 0 -16 42q-19 199 -206 244q-84 20 -181 22q-43 1 -85 5q-51 4 -103 4q-133 0 -159 -57q-8 -17 -8 -39q0 -59 53 -157q20 -35 30 -44t37 -9q88 2 173 2q98 0 197 -4q39 -2 79 -3q96 -2 189 -8h23zM1197 1267q66 12 66 80q-4 176 -187 207
q-58 10 -168 10q-39 0 -98 -33q-13 -7 -13 -10q0 -1 7 -1q38 5 110 5q7 0 38 -1t86 -21q48 -18 75 -48q55 -59 57.5 -123.5t22.5 -64.5h4zM1091 1412q6 0 6 2q-25 49 -120 66q-50 8 -86 8q-29 0 -44 -4q-15 -17 -15 -43l2 -9q3 -10 73 -10q113 -2 184 -10zM740 1359
q43 0 54 60q7 37 7 59q0 19 -12 19q-15 0 -28 -24q-8 -14 -23 -59q-11 -31 -11 -43q0 -9 4.5 -10.5t8.5 -1.5zM1022 -213q-54 0 -141 20q-123 29 -193 29q-42 0 -96.5 -5t-109.5 -5q-16 0 -60 1t-93 32q-30 19 -46 42q-11 16 -50 86q-5 9 -72 21q-35 6 -41 30
q-20 80 -20 187q0 192 87 267q27 19 32 24v6q0 10 -23 43q-47 70 -47 131q0 51 47 92q87 77 87 108q0 11 -3 28q-12 53 -12 106q0 254 178 290q82 16 146 44q75 33 100 33q12 0 12 -7q0 -1 -2 -11t-51 -39q-9 -5 -20 -9t-11 -7q0 -2 13 -5q54 -12 109 -17q98 -10 189 -47.5
t114 -93.5t27 -125q6 -116 48 -184q25 -40 54 -77q48 -63 77 -138q46 -121 46 -249q0 -294 -60 -437l-31 -73q0 -1 3 -1q6 0 42 12q41 14 52 31q6 10 6 27q0 9 -2 21q-13 104 -13 183q0 171 63 253q43 57 114 65q10 1 17 3.5t7 31.5q1 63 8 117q18 132 18 296
q0 274 -143 386q-35 26 -54 26q-22 0 -30 -37q-3 -17 -10.5 -26t-52.5 -29q-50 -23 -67 -23q-8 0 -16 7t-8 50t-7 67q-3 13 -14.5 17t-37.5 6q-18 1 -199 28q-16 3 -26 3l-11 -1q-12 -2 -12 -18q0 -36 -82 -36q-16 0 -25 5q-13 6 -13 33q0 91 54 148q70 72 217 72
q59 0 141.5 -18.5t137.5 -104.5q17 -27 22.5 -48.5t14.5 -37.5t34 -28l31 -13q74 -31 112 -95q25 -41 33.5 -55.5t11.5 -16.5l67 1q71 0 118 -43q85 -78 121 -245q30 -140 30 -224q0 -79 -41 -148.5t-143 -159.5q-9 -8 -16 -12q-15 -10 -15 -26q7 -120 7 -159
q0 -124 -6 -142q-3 -9 -11 -9q-4 0 -6 -2q-95 -71 -215 -99q-55 -13 -66 -20q-60 -41 -123 -46q-8 0 -15 2t-10 5t-5 4q-4 0 -16 -10q-58 -54 -124 -57zM920 246l-9 1q-121 10 -241 10q-109 0 -199 16q-68 11 -68 32q0 10 19 10h7q90 -7 151 -7l150 3q28 0 75.5 -1.5
t100.5 -19.5q45 -16 45 -33q0 -11 -31 -11zM550 -7q26 0 56 3q21 2 53 2q26 0 53.5 -1.5t53.5 -1.5q39 0 90.5 5t95.5 43q78 67 79 171v17q0 100 -16 118q-26 30 -390 30l-70 -1q-30 0 -42.5 1t-25.5 1q-14 0 -36 -1t-32 -14q-40 -48 -40 -176q0 -30 4 -53q17 -110 76 -130
q38 -13 91 -13zM741 -53l-182 2q-65 0 -126 21q-97 33 -97 257q0 73 31 139q11 26 17 31t42 9l2 1q1 0 1 -1t12 -1q72 2 144 6q119 7 162 7q318 0 318 -44q0 -3 -2.5 -6.5t-2.5 -9.5q0 -5 3 -15q18 -57 18 -114q0 -32 -11 -93t-83 -124q-58 -51 -142 -60q-52 -5 -104 -5z
" />
    <glyph glyph-name="uniE009" unicode="&#xe009;" horiz-adv-x="1012" 
d="M563 -45q-54 0 -176 10.5t-229 69.5q-58 32 -58 77q0 3 2 29t31 82q34 66 75 117q57 72 96 171q15 39 18 80q-18 3 -44 4q-80 3 -96 29q-13 22 -13 62q0 70 26 159q45 152 148 152q6 0 44.5 -4.5t89.5 -67.5q13 -16 18 -16q6 0 18 105.5t37.5 219t83.5 162.5q35 30 70 30
q25 0 48 -13q53 -29 53 -110q0 -57 -95 -337q-35 -101 -35 -111q0 -5 2 -5q8 0 34 10q44 17 101 28q13 2 24 2q44 0 65 -39q10 -20 11 -74q0 -146 -6 -166q-24 -67 -120 -67q-20 0 -40 4q-11 3 -17 3q-7 0 -7 -8q7 -47 7 -95q0 -30 -3.5 -55t-3.5 -48q0 -19 3 -50
q6 -54 88 -165q43 -58 43 -87q0 -9 -10.5 -26.5t-96.5 -40.5q-78 -21 -186 -21zM568 804q20 0 44 27q36 40 81 224q17 68 27 99q32 99 32 156q0 15 -2 29q-5 39 -41 39q-93 0 -127 -164q-6 -31 -18 -116q-24 -171 -24 -243q0 -51 28 -51zM757 581q22 0 55 8q39 9 39 58v24
q0 43 3 62q7 41 7 67q0 46 -28 46q-21 0 -57.5 -8.5t-71 -26.5t-34.5 -43q0 -13 24 -13q7 0 17 1.5t22 1.5t21 -4q-7 -10 -39 -18q-24 -6 -24 -11q0 -8 38.5 -23.5t38.5 -23.5q0 -5 -13 -5q-12 0 -31 4q-46 10 -84 10q-23 0 -23 -8q0 -15 62 -66q39 -32 78 -32zM580 -9
q91 0 160 20q29 8 29 25q0 19 -32 39q-14 8 -24 8q-15 0 -35 -18q-31 -28 -68 -28q-20 0 -46 8q-76 22 -76 89l1 31q0 13 -42 18q-67 8 -119 8q-20 0 -67 -2.5t-89 -45.5q-23 -23 -23 -39v-9q0 -9 35 -27q103 -53 273 -70q66 -7 123 -7zM605 80q22 0 41 16q7 6 7 9
q0 4 -11.5 13.5t-34.5 21t-42 11.5q-15 0 -25 -11v-14q0 -15 16.5 -30.5t48.5 -15.5zM764 113q2 0 2 2t-4.5 7.5t-13.5 15.5t-16 19q-53 73 -62 121q-5 29 -5 59q0 20 3 40q3 26 3 60q0 27 -7 59q-16 80 -58 121q-34 33 -98 33q-89 0 -129 -67q-31 -52 -50 -115
q-10 -34 -24 -64q-6 -12 -65 -88q-47 -60 -47 -84q0 -4 2 -7q2 -8 26 -8q23 0 59.5 5.5t82.5 5.5q90 0 178.5 -23.5t198.5 -80.5q20 -11 24 -11zM559 694q13 0 26 9.5t13 18.5q0 12 -17.5 22t-30.5 10q-36 0 -36 -21q0 -8 7.5 -19.5t25.5 -17.5q6 -2 12 -2zM275 628
q44 0 105 26q77 32 84 46q-27 8 -60 8q-57 1 -57 11q0 8 51 12q44 4 44 9t-36 13q-55 14 -55 19q0 6 45 7q71 2 71 40q0 25 -27 65q-46 69 -102 69q-46 0 -76 -75q-8 -22 -22 -72q-21 -77 -21 -121q0 -57 56 -57z" />
    <glyph glyph-name="uniE00A" unicode="&#xe00a;" horiz-adv-x="1777" 
d="M656 -147q44 0 114 12t119 40q-24 40 -66.5 68.5t-73.5 74.5q-6 8 -9 17.5t-8.5 17t-16 11t-21.5 3.5h-10t-12 -14q-17 -57 -55 -103q-51 -62 -75 -97q10 -8 25 -14q43 -16 89 -16zM1147 1119q-8 0 -12 10q-11 30 -11 64q0 51 16 90q21 52 46 52q12 0 12 -13q0 -8 -5 -20
q-26 -55 -26 -93q0 -22 6 -46q59 7 59 95q0 13 -4 25q-13 45 -13 72q0 13 6 13q11 0 25.5 -29t14.5 -81q0 -110 -99 -137zM683 -265q25 0 70 3q138 10 157 118q-128 -46 -220 -46q-69 0 -140 34q-26 12 -28 12q-4 0 -7 -4q-12 -20 -12 -37q0 -40 66 -62q53 -18 114 -18z
M884 230q38 0 125 9t210 94q158 109 239 283q75 160 75 307q0 59 -26 186t-173 321q-20 25 -32 25q-11 0 -11 -9q0 -8 21 -34q144 -182 144 -411q0 -218 -103.5 -386.5t-268.5 -251.5q-124 -62 -266 -62q-48 0 -97 10q-63 13 -107 18q-67 9 -142 43q-39 18 -48 18
q-7 0 -12 -4q-12 -10 -12 -17q0 -8 22 -18q247 -121 462 -121zM359 380q15 0 27 32q0 3 -3 6q-7 8 -17 8q-4 0 -8 -3q-15 -14 -15 -26q0 -17 16 -17zM357 513q1 0 1 6q-14 86 -14 165q0 241 60 349q5 9 10.5 15t5.5 11t-4 12q-53 97 -62 115q-33 70 -40 156q-6 65 -16 81
q-18 -3 -39 -39q-39 -66 -61 -137q-44 -137 -44 -265q0 -124 40.5 -237.5t145.5 -218.5q13 -13 17 -13zM361 1377q23 0 70 41q73 64 207 119q112 45 179 95q-28 12 -70 12q-16 0 -57 -4q-119 -13 -224 -68q-98 -52 -117 -87q-6 -11 -6 -43q0 -53 16 -65h2zM1259 598
q5 0 11.5 1.5t17.5 17.5q81 126 104 324q-1 0 -4 -4q-31 -31 -79 -65q-42 -29 -78 -63q-59 -56 -59 -146q0 -29 5 -45q2 -5 12 -8q41 -12 70 -12zM1106 434q6 0 10 4t15 12q87 63 110 108q-9 5 -24 8q-27 6 -39 6q-7 0 -29 -40q-13 -23 -26 -33q-30 -21 -30 -41q0 -10 8 -22
q2 -2 5 -2zM446 478q83 8 83 190v78q0 18 5 23.5t15 5.5q7 0 44 -6q19 -3 41 -3q14 0 40 2t39 35q-144 98 -191 146l-82 86q-34 -58 -46 -125q-17 -93 -17 -223v-57q0 -45 16 -101q14 -51 53 -51zM775 344q140 0 275 57q20 9 20 15q0 4 -4 10q-13 23 -13 40q0 27 36 54
q32 24 42 60q0 5 -8 8q-197 68 -368 186q-4 3 -7 6t-5 3l-2 -2q-12 -45 -57 -50q-17 -2 -34 -2q-44 0 -83 11q-3 -2 -3 -52v-38q0 -70 -14.5 -120.5t-81.5 -90.5q47 -33 158 -71q70 -24 149 -24zM1135 625q2 4 2 13q0 5 -1.5 13.5t-1.5 19.5q0 23 8 62.5t65 97.5
q33 34 69 58q48 33 97 85q5 6 12 6q3 0 8 -2q0 211 -110 380q-18 28 -35 59q-30 -10 -69 -10q-56 0 -56 28q0 13 7.5 30t7.5 31q0 29 -106 74q-116 49 -133 49t-52 -16t-82 -36q-98 -40 -201 -91t-148 -108q-14 -17 -14 -27q0 -13 23 -13q13 0 53 9q-18 -18 -46 -31
q-14 -7 -28.5 -15.5t-14.5 -24.5q0 -24 24 -72q29 -58 38 -58q21 0 26 57q3 32 3 41q0 18 11 52q9 29 13 29t4 -57q0 -36 -3 -70q-5 -45 -30 -74q-7 -9 -7 -13q40 -80 176 -196q47 -40 51 -40q-2 6 -16 26.5t-32 47.5q-50 76 -73 99q-35 35 -35 64v26q0 23 13 34
q31 29 93 29q43 0 87 -6q32 -5 58 -5q39 0 55 14.5t30 39.5q26 44 98 74q26 10 34 20q4 6 4 16q0 23 -10 53q-15 45 -15 64q0 59 71 59q17 0 34 -6q12 -5 12 -9q0 -1 -0.5 -3.5t-10 -7t-22.5 -9t-24.5 -9.5t-16 -11t-4.5 -17q0 -10 9 -46t9 -69q0 -30 -27 -38
q-82 -24 -120 -96q-28 -53 -87 -56l-40 -1q-30 0 -62.5 5t-63.5 5q-51 0 -67 -25q-5 -8 -5 -16q0 -13 12 -26q119 -136 155 -239q3 -9 3 -11.5t7 -7.5q207 -146 387 -202zM1194 1454q32 1 63.5 23.5t31.5 53.5q0 25 -16 25q-25 0 -65 -52q-24 -32 -24 -46q0 -4 10 -4z
M687 -310q-43 0 -92 10q-137 29 -137 120q0 38 25.5 75t63.5 75q86 89 86 126q0 6 -5 9q0 2 -32 13q-23 8 -45 17q-124 47 -216 162q-20 26 -20 39q0 8 5 8q7 0 19 -9q25 -18 30 -23q193 -178 444 -178q177 0 357.5 88t305.5 270q150 219 150 458q0 275 -183 470
q-81 87 -105 87q-7 0 -7 -7q0 -10 22 -32q77 -78 121 -148.5t73 -176.5q31 -112 31 -219q0 -422 -375 -637q-152 -87 -313 -87q-21 0 -123 6.5t-277 92.5q-13 6 -31 16t-36 19q-29 15 -54 15q-64 0 -64 35q0 33 23 50q6 5 6 10q0 6 -34 43q-200 215 -200 510q0 152 61 301
q132 321 462 379q72 13 146 13q32 0 101.5 -4t166.5 -45q33 -14 73 -45q51 -39 76 -39q21 0 46 29.5t41 29.5q24 0 62 -38q30 -31 65.5 -54t70.5 -57q206 -202 206 -507q0 -92 -31 -232.5t-153 -287.5q-222 -270 -566 -336q-42 -8 -80 -11q-32 -2 -66 -6q36 -47 84 -89
q30 -25 55 -53q37 -40 37 -86q0 -30 -19 -59q-72 -110 -251 -110z" />
    <glyph glyph-name="uniE00B" unicode="&#xe00b;" horiz-adv-x="1062" 
d="M762 492q8 0 18.5 25.5t21.5 50.5q64 138 64 225q0 64 -27 126q-40 93 -118 162q-37 33 -99.5 75.5t-110.5 51.5q-15 -29 -23 -58q-6 -19 -10.5 -29t-4.5 -16q0 -8 20 -18q90 -43 154 -121q76 -94 76 -205q0 -56 -33 -102q-22 -32 -22 -44q0 -10 17.5 -20t20.5 -34
q0 -8 -11 -18q13 6 22 6q15 0 30 -35q9 -22 15 -22zM632 73q28 0 87 31q43 23 65 53.5t22 52.5q0 30 -45 69q-25 23 -37 39q-26 34 -48 34q-11 0 -24 -7q-36 -18 -36 -41q4 -89 4 -110l-1 -102q0 -19 13 -19zM570 80q6 0 9 2.5t3 18.5q-4 174 -9 188.5t-34 14.5
q-22 0 -29 -11q-15 -21 -15 -89q0 -69 13 -95q4 -8 19 -15q27 -14 43 -14zM607 347q9 0 75 45q48 32 48 59q0 7 -2 15q-8 26 -25 26q-10 0 -24 -9q-55 -37 -92 -49q-20 -7 -20 -9q0 -9 13 -39q16 -39 27 -39zM564 1574q16 1 16 10q0 7 -12 19q-28 25 -77 45q-26 10 -48 10
q-20 0 -37 -12q-10 -7 -10 -17q0 -25 61 -41q52 -14 107 -14zM445 1336q8 0 13.5 2.5t6.5 23.5q1 63 16 121q9 35 9 53q0 7 -9 12q-15 7 -30 7q-6 0 -9 -2q-11 -6 -55 -119q-17 -44 -17 -65q0 -4 2.5 -16.5t72.5 -16.5zM235 793q29 3 29 37q0 9 -12.5 14.5t-16.5 5.5
q-8 0 -8 -23q0 -21 8 -34zM288 878q27 0 58 45t57.5 113.5t34.5 95.5q13 47 28 97q10 36 10 56q0 9 -7.5 11.5t-24.5 2.5q-54 0 -81 18q-12 7 -22 7q-3 0 -10 -2t-23 -39q-76 -175 -76 -306q0 -7 1.5 -34t31.5 -55q11 -10 23 -10zM622 631q10 0 19 14q38 63 38 129
q0 53 -26 106q-52 108 -151 175q-4 2 -7 5q-16 12 -25 12q-10 0 -19 -40q0 -9 23 -26q52 -38 91 -77t62 -105q10 -29 10 -56q0 -57 -38 -108q-3 -5 -7.5 -9.5t-4.5 -7.5q0 -12 35 -12zM498 519q46 0 93 15q53 16 53 32q0 9 -20 19q-37 19 -73 19q-54 0 -124 -34
q-17 -8 -36.5 -15t-37.5 -16q25 -7 62 -12q57 -8 83 -8zM489 455q15 0 15 5q0 10 -3 10q-2 10 -5 11.5t-11 2.5q-98 14 -200 40q7 -35 35 -50q33 -19 169 -19zM528 342q19 0 19 13q0 17 -11 36q-1 2 -6 14.5t-8 12.5q-28 -4 -57 -4q-27 0 -63 5q-43 6 -60 6q-8 0 -8 -4l1 -2
q32 -69 112 -69q19 0 29 5q5 3 10 3q4 0 12 -6q15 -10 30 -10zM462 121l-4 40q-1 15 -1 69q0 65 -1.5 71t-15.5 10.5t-31 4.5q-7 0 -15 -2t-8 -38q0 -23 4 -72t15 -63t57 -20zM417 -238q13 0 13 25q0 40 -3 48t-88 66q-129 89 -198 91q4 -74 30 -92q197 -138 246 -138z
M521 -252q37 0 86 27q145 82 242 217q50 70 53 88q-13 -11 -25 -23.5t-23 -22.5q-170 -159 -308 -199q-19 -6 -34 -6.5t-29 -3.5t-14 -19q0 -15 12 -34q14 -24 40 -24zM500 -126q52 0 116 40q146 91 223.5 175t77.5 176q0 4 -0.5 31.5t-41.5 66.5q-18 16 -48 31q-20 9 -36 9
q-10 0 -17 -3t-10 -3q-6 0 -12 8q-4 0 -7 -2q-15 -10 -15 -20q0 -1 1.5 -9t43 -43t67.5 -93q6 -13 6 -27q0 -27 -19.5 -60t-51.5 -59q-56 -47 -131 -47q-13 0 -20 -1.5t-12.5 -3.5t-12.5 -2q-56 1 -157 54q-36 19 -67.5 31t-31.5 15q0 1 18 5q13 3 13 18q0 25 -18 55
q-22 -5 -53 -32q-58 -51 -108 -116q-16 -21 -16 -32q0 -10 48 -28q57 -22 129 -73q86 -61 142 -61zM554 467q29 0 114 59q-75 -34 -126 -43v-4q0 -12 12 -12zM486 -309q-14 0 -35 12q-15 9 -36 17q-138 49 -273 161q-19 15 -29 51q-13 44 -13 69q0 12 2.5 14t16.5 8
q4 2 7.5 8t5.5 9t2 4l28 48q53 90 140 137q39 21 43 25q9 8 9 41q0 25 -11 36q-16 15 -28 57.5t-25 43.5q-23 2 -25 55q-1 11 -4.5 29t-3.5 27q1 17 25 21q57 11 107 36q67 33 141 40q27 3 33 4t19 38q17 41 17 80q0 64 -47 122.5t-90 88.5q-18 12 -26 12q-11 0 -30 -43.5
t-60 -79.5q-10 -9 -17 -13q-14 -7 -15 -10q-38 -92 -92 -92q-29 0 -29 45q0 48 15 76q3 5 3 12q0 5 -3 13q-21 52 -21 105q0 16 1 31q20 241 118 339q10 10 16 10q4 0 6 -1.5t5 -1.5q7 0 24 62q11 40 27 70q24 45 24 52q0 5 -12 16t-24 25t-13 32q0 14 15 29q26 28 69 28
q6 0 34 -2t74 -28t64 -63q6 -14 6 -24q0 -7 -6 -16q-8 -13 -57 -15q-16 -1 -25 -4t-21 -57q-14 -59 -19 -75q-16 -49 -16 -54q0 -7 14 -9q38 -4 38 -50q0 -20 -3.5 -29.5t-3.5 -15.5q0 -10 32 -23q130 -54 215.5 -131t133.5 -213q20 -55 20 -106q0 -111 -85 -250
q-36 -58 -36 -70q0 -11 32.5 -19t74 -42t50.5 -131l3 -82q0 -125 -81.5 -236.5t-211.5 -184.5q-42 -23 -90.5 -36.5t-64 -22.5t-28.5 -9z" />
    <glyph glyph-name="uniE00C" unicode="&#xe00c;" horiz-adv-x="1490" 
d="M659 182q21 0 38 14q28 22 92 158q21 43 44 84q132 234 159 390l1 15q0 10 -13.5 10.5t-26.5 1.5q-109 8 -235.5 52t-225.5 93q-11 5 -16 5q-6 0 -11 -13q-2 -7 -7 -17q-106 -219 -231 -428q-66 -109 -66 -122q0 -29 61 -67q194 -120 408 -172q16 -4 29 -4zM636 230
q-10 0 -45 21q-56 32 -198 86q-102 38 -102 64q0 11 13 11q31 0 153 -61q150 -75 150.5 -75t20.5 -11.5t20 -23.5q0 -11 -12 -11zM711 359q-29 0 -111 31q-138 50 -225 103q-22 14 -22 26q0 2 1.5 5t5 6t10.5 3q15 0 44 -15q180 -85 289 -127q28 -11 28 -22q0 -9 -20 -10z
M749 501q-7 0 -17 6q-61 32 -114 48t-126 45q-109 43 -109 69q0 10 14 10q6 0 279 -110q70 -28 77 -64q0 -4 -4 -4zM851 628l-13 1q-23 3 -350 127q-25 10 -25 21q0 15 23 15q61 0 245 -85l93 -43q35 -16 35 -26t-8 -10zM874 760l-8 1q-150 29 -261 64t-111 53q0 8 16 8
q47 0 197 -54q76 -28 130 -43q49 -13 49 -24q0 -5 -12 -5zM714 63q11 0 11 6q0 10 -58 31q-52 19 -52 29q0 5 10 5q16 0 49.5 -8t46.5 -8q14 0 47 30q11 10 18 27q18 46 38 58q11 0 25 68q27 136 52 136q14 0 24 -31q2 -8 3 -8t2 7q6 29 6 35q3 52 14 101.5t25 49.5
q15 0 24 -39q5 -21 8 -21q8 0 18 87l8 64q13 97 30 116h6q12 0 12 -26q-1 -27 -4 -52q-3 -21 -3 -41v-30q14 40 39 169q10 50 10 70q-12 -5 -22 -12q-16 -13 -37 -18q-27 -7 -36 -11.5t-13.5 -33.5t-15.5 -73q-40 -158 -109 -291q-162 -316 -203 -316q-16 0 -38 9
q-18 7 -41 14q-93 27 -170.5 54t-167.5 71q-21 10 -25 10l-1 -1q0 -4 26 -26q52 -43 165 -87q45 -18 82 -36q155 -78 197 -78zM759 59q6 0 19 4q81 28 147 177q5 10 5 15t-7 13.5t-20 56.5q-5 17 -7 17q-1 0 -12 -67q-19 -125 -52 -126q-10 -1 -22 -21q-8 -14 -15 -19.5
t-25 -5.5q-10 0 -13 -12q-1 -7 -3 -11q-3 -8 -3 -14q0 -7 8 -7zM955 305q33 55 33 92q0 9 -5 40q-4 22 -8 22q-1 0 -2.5 -4t-4 -28.5t-6.5 -48.5q-5 -35 -7 -73zM931 884q3 0 4 1q0 4 -16 28q-25 37 -25 92q0 63 52 114q38 38 87 49q18 4 43 13q10 3 10 6t-6 5
q-42 10 -111 34q-284 98 -414 98q-111 0 -163 -83q-16 -25 -16 -52q0 -24 19 -55q43 -70 138.5 -113.5t313.5 -113.5q72 -23 84 -23zM748 17q-88 0 -248 76l-67 29q-90 40 -160 87q-57 39 -114 131q-15 23 -29 37q-30 28 -30 44q0 12 20 41q132 193 238 397q40 77 83 152
q5 10 5 14t-8 8t-21 15q-88 71 -88 147q0 11 7.5 60.5t132.5 90.5q56 18 116 18q106 0 259 -49q162 -51 315 -123q21 -10 46 -16.5t46 -14.5q102 -37 134 -140q5 -18 5 -37q0 -57 -36.5 -126t-84.5 -124q-55 -63 -85 -124q-32 -67 -53 -182q-7 -35 -21 -35q-5 0 -11 5
q-12 11 -12 33q0 90 167 346q30 45 59.5 97.5t29.5 100.5q0 25 -15.5 71.5t-104.5 79.5q-45 16 -94 16q-23 0 -71.5 -7.5t-94.5 -63.5q-24 -30 -24 -67q0 -9 4.5 -37.5t41.5 -59.5q24 -20 52 -20q18 0 32 15.5t14 28.5q0 23 -63 45q-41 15 -41 27q0 20 37 20q4 0 28 -2
t64.5 -31t40.5 -84q-1 -146 -72 -379q-106 -348 -209 -454q-54 -56 -120 -56z" />
    <glyph glyph-name="uniE00D" unicode="&#xe00d;" horiz-adv-x="1077" 
d="M234 995l17 5q16 4 16 10q0 4 -10 18q-16 23 -27 42q-7 14 -9 14t-2 -6q0 -29 10 -70q2 -8 5 -13zM861 721q7 0 20 42q6 19 6 28v4l-27 -11q-27 -11 -27 -25q0 -5 10 -21.5t18 -16.5zM473 490q33 3 59 43q19 30 77 98q96 113 102 129q-10 18 -49 42q-211 -263 -211 -299
q0 -13 17 -13h5zM505 966v2q1 9 1 104q0 6 -2 6q-5 0 -34 -42q-16 -23 -16 -36q0 -8 7.5 -14t20.5 -12.5t23 -7.5zM312 559q22 0 47 98q32 121 109 229q28 40 28 46q0 8 -17 12q-5 1 -11 4q-27 12 -40 12q-3 0 -9.5 -3t-32.5 -73q-48 -126 -58 -148q-55 -121 -55 -142
q0 -10 12.5 -22.5t26.5 -12.5zM275 697q6 10 16 33t16.5 42.5t6.5 33.5q-7 66 -29 132q-10 28 -15 28q-4 0 -11 -6q-30 -27 -30 -69q0 -41 16 -105q13 -50 30 -89zM375 525q10 0 10 20q0 8 -3 19.5t-7 20.5t-8 9q-5 0 -9 -12t-4 -30q0 -11 6 -17q9 -10 15 -10zM435 -25h-2
q-7 0 -7 7q0 25 61 116l47 71q31 47 60 112q51 112 51 141q0 10 -2 14t-2 10q0 9 16 32q53 75 119 148q54 60 54 72q0 13 -17 13q-19 0 -42 -24q-20 -21 -60 -69q-113 -136 -113 -168q0 -5 7 -11q15 -15 15 -20q0 -7 -17 -7q-65 0 -201 59q-85 37 -148 77q-17 11 -24 11
q-2 0 -8 -2.5t-6 -30.5q0 -34 115 -68q99 -29 99 -50q0 -2 -12 -2q-28 0 -43 5q-39 12 -147 58q-12 5 -19 5q-14 0 -21 -39q-22 -122 -22 -142q0 -7 2.5 -9.5t24.5 -13.5q112 -54 112 -71q0 -6 -13 -6q-35 0 -89 31q-32 18 -39 18t-14 -38q-7 -43 -7 -75q0 -9 3 -13
q30 -44 82.5 -67.5t104.5 -29.5q64 -8 64 -18q0 -14 -78 -14q-128 1 -207 101q-12 15 -12 32q0 8 2.5 17.5t17 115t38.5 215.5q37 172 69 172q6 0 13 -20q4 -11 7 -11q4 0 8 21q2 9 2 18q0 12 -6 28l-25 60q-33 82 -33 145q0 42 15 85q-10 12 -16 52.5t-6 80.5q0 57 22 57
q18 0 98 -178q13 -30 29 -130q6 9 27 51q32 62 32 84.5t9 22.5t15 2q10 3 28 37q15 28 33 48q31 33 44 33q14 0 14 -30q0 -32 -6 -69q-3 -17 -4 -28q-5 -58 -12 -76q-10 -29 -43 -91q-78 -146 -78 -189l2 -35q3 -42 15 -50q8 14 19 74q26 144 167 447q35 76 35 85
q0 10 -5 27.5t-5 42.5q0 62 52 104q9 7 19 14.5t10 19.5q0 19 5 19q6 0 11 -12q21 -52 21 -118q0 -60 -32 -90q-13 -12 -28 -14.5t-25 -27.5q-88 -232 -108 -280q-88 -213 -119 -327l145 198q163 222 177 222q2 0 2 -3q0 -16 -41 -66q-27 -32 -27 -43t39 -50q20 20 43 60
q17 31 17 54q0 7 -1 13q-6 7 -13 10.5t-10 9t-3 11.5q0 11 18 72q35 119 58 119q5 0 14 -11q5 -6 11 -10q11 -8 11 -21q0 -8 1 -9q16 8 25 8q14 0 14 -17q0 -6 1 -6q2 0 5 2.5t6.5 4t4.5 1.5q14 0 14 -16q0 -14 -23 -41q-5 -6 -7 -10q6 4 16 14.5t21 20t19 9.5q12 0 12 -12
q0 -5 -3.5 -12t-38.5 -43q-68 -69 -118 -87q-21 -7 -26 -33q-3 -12 -11 -26q-48 -88 -137 -201q-117 -148 -117 -155q0 -14 17 -14q14 0 27 12q27 25 43 55q66 118 147 192q34 31 40 40q15 24 53 47q52 32 76 32q12 0 12 -12q0 -13 -18 -45q-8 -20 -38 -75
q-35 -65 -192 -245q-24 -27 -24 -62q0 -25 -7 -52q-10 -37 -51 -126q-114 -244 -176 -251z" />
    <glyph glyph-name="uniE00E" unicode="&#xe00e;" horiz-adv-x="1366" 
d="M613 737q-33 0 -33 33q0 19 28 65q-67 38 -67 59q0 20 24 20q25 0 61 -19q1 26 2 52.5t30 26.5q36 0 36 -81q39 11 51 11q32 0 32 -18q0 -29 -59 -61q40 -33 40 -52q0 -18 -24 -18q-21 0 -60 34q-25 -52 -61 -52zM964 787q8 0 28 16q120 91 185 186q47 67 47 119
q0 69 -83 69q-125 -14 -166 -42q-12 -8 -12 -45q0 -139 26 -139q6 0 28 14q100 63 100 122q-11 2 -21 2q-25 0 -56 -24q-39 -32 -54 -32q-5 0 -5 8q0 34 74 74q38 20 70 20q26 0 40 -24q5 -10 5 -20q0 -41 -40 -92q-70 -91 -131 -103q-11 -2 -17 -6q-11 -7 -20 -59
q-3 -22 -3 -31q0 -13 5 -13zM360 776q3 0 3 24l-1 100q0 31 5 63q7 36 7 73q0 30 -32 42q-38 15 -82 15q-23 0 -38 -5q0 -63 26.5 -111t62.5 -94q44 -59 44 -68q0 -3 -4 -3t-18 12q-107 91 -145 225q-6 12 -6 48q0 34 62 34q29 0 78 -13q42 -12 48 -12q25 0 25 18
q0 14 -108 40q-67 16 -95 16q-43 0 -43 -50q0 -12 3 -28q19 -102 80 -186q32 -42 66 -81q51 -59 62 -59zM705 1304q104 0 151 22q34 16 34 36q0 15 -30 33q-60 34 -121 34q-72 0 -188 -36q-94 -21 -94 -38q0 -8 19 -17q74 -34 229 -34zM647 1212q30 0 88 3t131 15.5
t101 37.5q6 6 6 13q0 17 -21 27q-7 4 -14 4q-15 0 -43 -19q-55 -39 -201 -39h-58q-69 1 -140 32q-47 20 -76 20q-20 0 -31 -18q-3 -5 -3 -10q0 -39 128 -56q78 -10 133 -10zM619 68q14 0 14 19.5t1 38.5q0 49 -2 77l-62 16q-24 7 -91 32q-18 7 -30 7q-14 -9 -14 -81
q0 -53 101 -88q61 -21 83 -21zM641 -45q63 0 92 9q38 12 86.5 33t81 42.5t32.5 34.5t-24 31q-15 13 -26 13q-9 0 -21 -14q-73 -84 -188 -84q-89 0 -170 43t-87 54q-9 14 -11 28t-5 14q-4 0 -13 -15q-14 -24 -14 -45q0 -49 70 -90q94 -54 197 -54zM691 67q59 5 107 43
q30 24 30 38q0 7 -9.5 15t-9.5 15q0 5 5.5 13t10 9t11 1t9.5 1t5.5 9t3.5 28q0 2 1 6t1 11q0 11 -4 11l-8 -3q-72 -35 -162 -58q-7 -33 -7 -67v-48q0 -24 16 -24zM635 256q76 0 144 28q27 11 28 20q0 5 -10 13q-15 12 -24 12q-8 0 -20 -5q-55 -28 -112 -28q-51 0 -102 23
q-10 4 -17.5 10t-11.5 8t-6 2q-28 -10 -28 -22q0 -10 19 -21q70 -40 140 -40zM673 341q43 0 43 11q0 5 -7 11q-16 13 -29 13q-8 0 -15 -2.5t-14 -2.5q-26 0 -35 14q-5 8 -15 8q-4 0 -15 -4t-22 -11.5t-11 -14.5q0 -22 120 -22zM658 421q2 0 6.5 7.5t8 17.5t3.5 19
q0 13 -16 20l-9 -2q-10 -2 -10 -17q4 -45 17 -45zM927 890q2 33 2 69q-1 66 -9 126q-6 46 -6 62l1 15q0 27 -19 27q-8 0 -19 -2q-133 -22 -224 -22q-61 0 -123 10q-51 8 -74 8h-13q-23 -31 -31 -140q-7 -101 -7 -154q90 -22 113 -24q25 -2 25 -26q0 -22 -21 -22q-18 0 -40 4
q-48 8 -76 17q2 -34 5 -74q6 -73 52.5 -142.5t158.5 -86.5h46q113 10 171 87q63 84 82 216q-28 -9 -75 -17q-22 -4 -40 -4q-21 0 -21 22q0 24 25 26q24 2 117 25zM637 -103q-108 0 -210 61q-22 13 -52 41.5t-53.5 60t-23.5 55.5q0 38 69 66q21 8 31 17q4 4 4 21q0 18 -4 82
q0 41 87 73q19 7 36 18q31 21 58 28q23 5 31 30q5 16 5 24q0 10 -17 15q-79 17 -125 54t-76 112q-5 13 -7 21q-4 14 -10 22.5t-23 19.5q-91 54 -166 169q-91 140 -91 252q0 88 81 88l29 -1q29 -1 101 -30q56 -26 78 -26q10 0 17 5t7 10q0 10 -31 24q-64 30 -64 71
q0 26 16 38.5t42 20.5q19 6 25 14.5t12 31.5q11 41 105 69q98 28 194 28q17 0 71 -2t122 -48q23 -16 31.5 -33t10.5 -44q1 -8 23 -13q50 -12 72 -56q4 -7 4 -13q0 -25 -55 -49q-48 -20 -48 -40q0 -10 10 -22q4 -5 11 -5q21 0 64 26q63 38 121 38q16 0 59.5 -8t56.5 -108
l1 -17q0 -138 -296 -362q-33 -24 -49 -60q-30 -63 -69 -103t-104 -64q-10 -4 -19 -5.5t-15 -5.5t-6 -18t-1 -30q0 -13 1 -21t12.5 -17t69.5 -32t100 -59q17 -13 17 -65q0 -13 -1 -25t-1 -19q0 -19 20 -36q24 -21 48 -38q44 -33 44 -56q0 -21 -37 -48q-122 -93 -269 -120
q-37 -7 -74 -7z" />
    <glyph glyph-name="uniE00F" unicode="&#xe00f;" horiz-adv-x="1506" 
d="M694 -44q124 12 183 185q33 99 33 177q0 164 -106 164q-117 0 -170 -158q-41 -120 -41 -207q0 -86 35 -132q22 -29 66 -29zM802 688q-15 0 -25 17q-5 8 -5 15q0 16 27 25h7q26 0 26 -19q0 -8 -9 -23t-21 -15zM265 400q-40 0 -40 26q0 30 52 85q30 32 74 54q64 31 109 31
q51 0 51 -39q0 -31 -38 -65q-30 -27 -107 -63q-62 -29 -101 -29zM246 374q43 0 98 18t82 31q86 39 114 102q5 13 5 28q0 22 -17 45q-22 30 -60 30q-49 0 -116 -28q-55 -23 -101 -67q-58 -54 -58 -116q0 -41 40 -43h13zM720 28q-13 0 -23 12q-19 22 -19 75q0 75 24 172
q31 126 70 126q9 0 27.5 -12.5t28 -46t9.5 -69.5q0 -147 -82 -236q-20 -21 -35 -21zM723 -4q20 0 45 22t42 55q57 103 57 208q0 100 -50 147q-19 17 -42 17q-14 0 -29 -7q-32 -15 -45 -49q-8 -24 -30 -109q-25 -100 -25 -162q0 -20 4 -54t43 -58q15 -10 30 -10zM695 -80
q-73 0 -109 86q-23 52 -23 109q0 80 25 168.5t72 156.5q19 28 29 48q18 37 18 87q0 36 -16 36q-17 0 -41.5 -16.5t-37.5 -63.5q-5 -19 -16 -41q-67 -138 -210 -195q-61 -24 -131 -24q-155 0 -155 137q0 70 55 131.5t135 104.5q113 60 203 60q17 0 60 -6q31 -6 44 -6
q39 0 93 44q27 21 32 41.5t5 46.5q0 32 7 72q32 214 113 416q22 56 65 104q38 44 97 44q37 0 39 -23q0 -24 -5 -41q-2 -5 -2 -13q-60 -262 -108 -421q-9 -34 -13 -68q37 15 143 97q300 223 321 223q22 0 22 -36q0 -120 -106 -229q-142 -148 -403 -273q-33 -16 -43 -33
t-15 -40q-4 -16 -14 -44q-7 -17 -7 -27q0 -12 9 -16q30 -11 56 -29q59 -43 59 -161q0 -33 -10 -104t-59 -163.5t-124 -125.5q-28 -13 -54 -13zM260 300q66 0 137 37q83 43 130 98q21 26 43 66q28 51 28 94q0 35 -27 57q-33 27 -79 27q-21 0 -44 -5q-74 -18 -145 -59
q-177 -105 -177 -218q0 -37 38 -65q44 -32 96 -32zM748 507q45 0 67 114l6 26q0 1 -3 1t-10 -2t-40.5 -11t-35.5 -13.5t-2 -7.5q0 -4 1.5 -10t1.5 -22q0 -22 -1 -28q-3 -14 -3 -28q0 -19 19 -19zM640 627q10 0 27 5q473 130 688 456q30 45 30 74q0 11 -8 13
q-15 -2 -290 -206q-278 -207 -393 -261q-72 -34 -72 -66q0 -15 18 -15zM751 778q14 0 74 41q31 21 45.5 39t25.5 64q118 481 118 490q0 17 -15 17q-127 0 -221 -464q-29 -143 -29 -178q0 -9 2 -9z" />
    <glyph glyph-name="uniE010" unicode="&#xe010;" horiz-adv-x="1377" 
d="M173 88q9 0 54 31q53 37 53 48q0 6 -20 19t-23 13q-6 -5 -20.5 -29t-28.5 -49t-15 -33zM905 949q14 0 14 96q0 20 -2.5 101t-48.5 142q-22 29 -50 29q-15 0 -30 -7q-42 -18 -42 -69q0 -27 36 -103q26 -55 54 -86q-21 113 -21 140t13 27q23 0 38 -132q16 -138 39 -138z
M955 1020q89 50 149 144q20 30 20 38q0 3 -3 3q-5 0 -29 -14q-123 -72 -137 -171zM1007 972q80 0 144 40q92 57 92 207q0 74 -10 74q-2 0 -14 -11q-26 -26 -40 -59q-4 -10 -13 -28q-39 -79 -79 -124t-116 -76q-17 -7 -17 -11q0 -12 53 -12zM675 883q25 0 71 8q38 6 38 9
q0 1 -25 1q-82 0 -82 18t65 18h37q48 0 48 1q0 7 -91 35q-23 7 -48 7q-74 0 -74 -61q0 -29 21.5 -32.5t39.5 -3.5zM1179 681q38 0 38 56q0 59 -48 109q-86 91 -183 91q-15 0 -15 -8q0 -17 62 -54q30 -17 73 -52t43 -52q0 -10 -8 -10q-10 0 -47 35.5t-55 41.5q5 -24 48.5 -90
t73.5 -67h18zM307 202q13 0 65 59q129 145 192 234q45 64 125 146t148 197q15 26 15 31l-1 1q-9 0 -117 -128q-61 -72 -127 -137q-44 -44 -86 -94q-59 -68 -121 -123q-140 -125 -140 -152q0 -10 11 -19q18 -15 36 -15zM944 603q21 0 44 12q27 14 32 34q7 30 7 46
q0 38 -22 78q-48 85 -60 85q-3 0 -3 -5q0 -21 14.5 -68t14.5 -94q0 -46 -12 -46t-27 147q-5 43 -14 43q-2 0 -5 -5q-21 -40 -21 -114q0 -113 52 -113zM112 20q-12 0 -12 9q0 7 18 31l-1 6q0 5 2 9q44 85 126 201q28 40 52.5 65t120.5 116q161 153 335 350q28 32 30 42
q-4 1 -11 1q-12 0 -34 -5q-36 -8 -78 -8t-77 39q-15 16 -15 41q0 56 46 79q36 18 73 18t88 -20q37 -15 53 -15q5 0 5 3q0 6 -15 24q-26 32 -64 105q-33 62 -45 124q-3 13 -3 25q0 50 38 74q45 27 88 27q35 0 59 -21q49 -43 55 -104q3 -29 3 -52l-1 -72q1 0 18 19
q10 10 10 13q51 47 105 79q90 53 137 111q16 20 26 20q9 0 15 -14q18 -45 18 -124q0 -65 -19 -117q-25 -66 -61 -101t-102 -57q79 -52 94 -64q24 -20 48.5 -63.5t24.5 -80.5q0 -89 -88 -89q-41 0 -84 48l-28 30v-21q0 -87 -70 -123q-30 -15 -53 -15q-64 0 -79 99
q-4 27 -4 51q0 18 2.5 34.5t2.5 37.5q0 5 -2 5q-4 0 -12 -14q-20 -37 -101 -130q-41 -47 -77 -94q-141 -184 -299 -353q-77 -82 -209 -160q-6 -3 -12 -3l-7 1q-24 -17 -30 -17z" />
    <glyph glyph-name="uniE2F1" unicode="&#xe2f1;" horiz-adv-x="858" 
d="M121 -129q-76 0 -76 75q0 35 8 129q33 384 50 484q94 557 333 557q287 0 334 -554q13 -150 13 -401q0 -271 -129 -271q-118 0 -119 244q0 90 -39 90h-245q-21 0 -25 -76q-12 -277 -105 -277zM295 319q154 0 195.5 6t41.5 47q0 34 -8 144q-35 469 -118 469q-44 0 -85 -131
q-34 -111 -55 -239q-25 -153 -25 -236q0 -60 54 -60z" />
    <glyph glyph-name="uniE2F2" unicode="&#xe2f2;" horiz-adv-x="901" 
d="M535 -139q-109 0 -204 45q-10 5 -23 5q-15 0 -25 -10q-27 -25 -67 -25q-144 0 -144 455q0 199 21 488q10 132 33 193q34 91 136 91q74 0 89 -93q3 -19 15 -19q7 0 15 9q111 116 260 116q88 0 143 -42q91 -69 91 -234q0 -189 -147 -339q-54 -55 -120 -98q-17 -11 -17 -18
q0 -5 17 -11q83 -28 135 -73q91 -78 91 -175q0 -121 -86 -193t-213 -72zM340 393q6 0 17 4q83 29 152 97q131 128 131 325q0 161 -69 161q-103 0 -173 -149q-45 -96 -54 -194q-12 -115 -12 -227q0 -17 8 -17zM457 -27q58 0 97.5 39t39.5 102q0 56 -46 111q-60 71 -147 71
q-44 0 -57 -13t-13 -40v-162q0 -108 126 -108z" />
    <glyph glyph-name="uniE2F3" unicode="&#xe2f3;" horiz-adv-x="773" 
d="M467 -123q-118 0 -215.5 62t-155 181t-57.5 295q0 198 53 352t156 245t251 91q86 0 138 -41.5t75 -98t23 -110.5q0 -55 -13.5 -102t-56.5 -47q-52 0 -52 59q0 70 -25 130q-29 69 -70 69q-44 0 -91.5 -53t-80.5 -172t-33 -304q0 -43 6 -99.5t20.5 -113.5t40 -105t60.5 -75
t82 -27q44 0 82.5 25t65.5 68q17 27 54 27q49 0 49 -43q0 -11 -5 -24q-22 -48 -65.5 -91t-104 -70.5t-131.5 -27.5z" />
    <glyph glyph-name="uniE2F4" unicode="&#xe2f4;" horiz-adv-x="1078" 
d="M454 -8q81 0 142 51.5t100 139.5q62 142 62 327q0 51 -7 126q-6 68 -34 147q-73 208 -211 208q-54 0 -118 -54q-57 -48 -57 -586v-213q0 -80 36.5 -113t86.5 -33zM482 -139q-72 0 -114 31.5t-57 31.5q-10 0 -19 -12q-28 -36 -76 -36q-144 0 -144 455q0 199 21 488
q10 132 33 193q34 91 125 91q37 0 62 -21q16 -13 42 -14q26 0 46 10q75 38 170 38q119 0 206.5 -54t143.5 -143q101 -161 101 -388q0 -260 -139 -460q-146 -210 -401 -210z" />
    <glyph glyph-name="uniE2F5" unicode="&#xe2f5;" horiz-adv-x="698" 
d="M366 -133q-268 0 -284 261q-6 108 -6 212q0 60 3 170q14 402 59 497q30 63 98 82q56 14 169 14q128 0 225 -34q89 -31 89 -70q0 -10 -7 -23q-14 -31 -54 -31q-14 0 -45 14q-71 29 -163 29q-51 0 -68.5 -34.5t-24.5 -129.5q-20 -231 -20 -388q0 -36 67 -36q101 0 158 22
q17 7 33 7q39 0 53 -37q3 -9 3 -17q0 -35 -37 -49q-90 -34 -211 -34q-67 0 -67 -42q0 -103 10 -175q12 -91 78 -91q116 0 199 40q21 9 35 9q40 0 54 -30q7 -13 7 -24q0 -29 -33 -48q-112 -64 -320 -64z" />
    <glyph glyph-name="uniE2F6" unicode="&#xe2f6;" horiz-adv-x="679" 
d="M217 -124q-143 0 -143 455q0 311 17 481q13 133 81.5 212t229.5 79q167 0 282 -58q30 -16 30 -46q0 -10 -5 -21q-15 -33 -54 -33q-16 0 -37 11q-64 32 -146 32q-139 0 -139 -231v-327q0 -32 31 -32q82 0 145.5 15.5t85.5 15.5q52 0 52 -47q0 -42 -36 -56
q-91 -34 -211 -34q-67 0 -67 -41v-170q0 -205 -116 -205z" />
    <glyph glyph-name="uniE2F7" unicode="&#xe2f7;" horiz-adv-x="837" 
d="M467 -123q-118 0 -215.5 62t-155 181t-57.5 295q0 198 53 352t156 245t251 91q85 0 138 -41.5t75.5 -98t22.5 -110.5q0 -55 -13.5 -100t-55.5 -49q-53 0 -53 59q0 69 -26.5 134.5t-69.5 65.5t-91 -54t-80.5 -172.5t-32.5 -304.5q0 -103 23 -207q14 -57 35 -105
q46 -103 115 -103q45 0 77 35q53 57 77 168q12 57 12 91q0 17 -4 24.5t-29 7.5q-53 0 -110 -18q-18 -5 -40 -5q-44 0 -44 52q0 84 206 84q164 0 164 -117q0 -181 -71 -311q-82 -151 -257 -151z" />
    <glyph glyph-name="uniE2F8" unicode="&#xe2f8;" horiz-adv-x="834" 
d="M216 -124q-144 0 -144 455q0 199 21 488q10 132 33 193q34 91 136 91q81 0 91 -107q4 -48 4 -94q0 -45 -4 -90q-20 -232 -20 -328q0 -55 80 -55q84 0 150 18q21 6 21 49q1 225 8 506q2 114 87 114q66 0 66 -88q0 -85 -3 -153q-9 -209 -9 -516l2 -363q0 -116 -76 -116
q-67 0 -70 110q-5 138 -5 314q0 41 -30 41q-31 0 -84 -5.5t-124 -5.5q-15 0 -15 -26v-227q0 -205 -115 -205z" />
    <glyph glyph-name="uniE2F9" unicode="&#xe2f9;" horiz-adv-x="435" 
d="M216 -124q-144 0 -144 455q0 199 21 488q10 132 33 193q34 91 136 91q82 0 91 -107q4 -48 4 -94q0 -45 -4 -90q-22 -258 -22 -461v-276t-115 -199z" />
    <glyph glyph-name="uniE2FA" unicode="&#xe2fa;" horiz-adv-x="647" 
d="M233 -123q-72 0 -121.5 35.5t-73.5 91t-24 119.5q0 173 70 173q51 0 51 -60t6 -101q19 -120 73 -120q97 0 97 453q0 99 -4.5 203t-14 192t-9.5 145q0 95 110 95q56 0 87 -25q56 -44 69 -151q6 -49 11 -108q12 -161 12 -285q0 -45 -2 -120t-18.5 -173.5t-53 -180
t-101 -132.5t-164.5 -51z" />
    <glyph glyph-name="uniE2FB" unicode="&#xe2fb;" horiz-adv-x="757" 
d="M720 -122q-142 0 -261 253q-71 149 -104 227q-10 25 -18 25q-7 0 -7 -27q1 -89 1 -261q0 -206 -115 -206q-144 0 -144 455q0 199 21 488q10 132 33 193q34 91 136 91q81 0 91 -107q4 -48 4 -94q0 -45 -4 -90q-11 -141 -11 -180q0 -27 8 -27q9 0 30 33q100 162 134 211
q60 89 105 175q31 60 80 60q39 0 56 -34q7 -13 7 -28q0 -24 -17 -58q-50 -101 -122 -204q-53 -76 -129 -180q-28 -38 -28 -85q0 -37 21 -73q66 -114 189 -286q111 -155 111 -208q0 -63 -67 -63z" />
    <glyph glyph-name="uniE2FC" unicode="&#xe2fc;" horiz-adv-x="619" 
d="M364 -133q-269 0 -284 261q-6 97 -6 234q0 223 19 457q11 132 34 193q34 91 135 91q82 0 92 -107q4 -48 4 -94q0 -45 -4 -90q-21 -246 -21 -373v-189q0 -104 11 -175q12 -91 77 -91q116 0 197 38q23 11 37 11q40 0 54 -30q7 -13 7 -24q0 -29 -29 -46q-115 -66 -323 -66z
" />
    <glyph glyph-name="uniE2FD" unicode="&#xe2fd;" horiz-adv-x="1054" 
d="M867 -124q-89 0 -89 135q0 92 6 182q10 183 10 360q0 176 -16 176q-11 0 -58 -281.5t-164 -281.5q-125 0 -218 539q-15 84 -23 84t-8 -215q0 -113 3.5 -242t3.5 -257q0 -199 -105 -199q-133 0 -133 455q0 59 1.5 160t19.5 332q21 293 168 293q166 0 271 -669
q5 -34 12 -34q18 0 117 517q29 155 135 155q168 0 168 -678q0 -183 -7 -366q-7 -165 -94 -165z" />
    <glyph glyph-name="uniE2FE" unicode="&#xe2fe;" horiz-adv-x="884" 
d="M637 -131q-86 0 -133 113q-78 182 -197 652q-13 49 -19 49q-3 0 -3 -17q0 -13 3 -64.5t6 -121.5q12 -289 12 -399q0 -205 -104 -205q-130 0 -130 455q0 235 26 539q7 85 22 148q21 85 97 85q108 0 151 -152l187 -695q21 -77 31 -77q6 0 6 41q0 105 -37 592q-4 45 -4 90
q0 46 4 95q8 106 83 106q93 0 123 -91q36 -106 36 -431q0 -536 -60 -645q-37 -67 -100 -67z" />
    <glyph glyph-name="uniE2FF" unicode="&#xe2ff;" horiz-adv-x="885" 
d="M440 -123q-118 0 -208 62t-138.5 181t-48.5 295q0 198 48.5 352t147.5 245t247 91q184 0 266 -197q68 -161 68 -400q0 -262 -83 -432q-95 -197 -299 -197zM478 13q88 0 146 132q26 57 41 127q27 126 27 234q0 168 -32 269.5t-75 144.5t-78 43q-43 0 -87 -58.5t-72.5 -179
t-28.5 -322.5q0 -390 159 -390z" />
    <glyph glyph-name="uniE300" unicode="&#xe300;" horiz-adv-x="873" 
d="M216 -124q-144 0 -144 455q0 199 21 488q10 132 33 193q34 91 136 91q73 0 83 -65q5 -39 19 -39q13 0 47 28q102 80 226 80q89 0 140 -40q94 -72 94 -227q0 -100 -40 -185q-77 -165 -256 -272q-104 -61 -209 -86q-18 -4 -26.5 -12.5t-8.5 -29.5v-174q0 -205 -115 -205z
M343 395q5 0 14 3q81 30 149 96q131 128 131 325q0 33 -8 73t-24 64t-38 24q-102 0 -172 -149q-37 -79 -48 -159q-15 -121 -15 -253q0 -24 11 -24z" />
    <glyph glyph-name="uniE301" unicode="&#xe301;" horiz-adv-x="890" 
d="M478 13q43 0 43 18q0 12 -10 28q-79 132 -79 174q0 9 3 17q13 31 51 31q36 0 69 -41q28 -34 45 -56q13 -15 23 -15q13 0 23 30q8 25 19 72q27 127 27 235q0 168 -32 269.5t-75 144.5t-77 43q-44 0 -88 -58.5t-72.5 -179t-28.5 -322.5q0 -390 159 -390zM753 -197
q-81 0 -152 101q-5 7 -6 7q-4 0 -12 -4q-64 -30 -143 -30q-119 0 -208 62t-138 181.5t-49 294.5q0 197 49 351.5t147.5 245.5t246.5 91q184 0 268 -200q66 -158 66 -397q0 -278 -89 -444q-8 -15 -8 -29q0 -17 10 -31q75 -108 75 -147q0 -52 -57 -52z" />
    <glyph glyph-name="uniE302" unicode="&#xe302;" horiz-adv-x="888" 
d="M343 395q5 0 13 3q82 30 150 96q131 128 131 325q0 33 -8 73t-24 64t-38 24q-102 0 -172 -149q-37 -79 -48 -160q-15 -120 -15 -252q0 -24 11 -24zM216 -124q-144 0 -144 455q0 199 21 488q10 132 33 193q34 91 136 91q81 0 87 -69q3 -32 16 -32q14 0 47 25
q101 80 225 80q89 0 144 -43q90 -69 90 -224q0 -100 -40 -185q-65 -141 -207 -240q-16 -11 -16 -26q0 -21 91 -139q140 -181 140 -243q0 -64 -67 -64q-103 0 -192 132q-38 56 -82 138q-56 104 -60 104q-5 0 -73 -19q-17 -4 -25.5 -13t-8.5 -30v-174q0 -205 -115 -205z" />
    <glyph glyph-name="uniE303" unicode="&#xe303;" horiz-adv-x="683" 
d="M304 -105q-106 0 -171 69.5t-65 160.5q0 55 13.5 101.5t58.5 46.5q50 0 50 -58q0 -38 12 -82q28 -97 100 -97q29 0 52 16.5t36.5 45.5t13.5 61q0 66 -23.5 115.5t-61.5 91.5t-81 82q-46 44 -89 92t-70.5 107.5t-27.5 137.5q0 87 40.5 163.5t118.5 124.5t187 48
q107 0 171.5 -69t64.5 -160q0 -149 -71 -149q-50 0 -50 59q0 38 -11 81.5t-33 70.5t-51 27q-49 0 -84.5 -47.5t-35.5 -131.5q0 -43 18.5 -79.5t49 -71.5t67.5 -70q48 -47 94 -101.5t76.5 -124.5t30.5 -163q0 -68 -36 -136t-109.5 -114.5t-183.5 -46.5z" />
    <glyph glyph-name="uniE304" unicode="&#xe304;" horiz-adv-x="614" 
d="M327 -108q-144 0 -144 455q0 184 21 473q5 72 15 125q3 14 3 25q0 20 -8 20q-7 0 -19 -3q-45 -11 -87 -31q-23 -11 -44 -11q-19 0 -33 10q-23 14 -23 38q0 46 40 65q125 60 264 65q24 1 49 1q172 0 299 -56q44 -20 44 -51q0 -33 -13.5 -48t-39.5 -15q-23 0 -45 9
q-66 30 -103 30q-36 0 -48.5 -219t-12.5 -407v-269q0 -206 -115 -206z" />
    <glyph glyph-name="uniE305" unicode="&#xe305;" horiz-adv-x="919" 
d="M460 -124q-303 0 -372 361q-24 123 -24 298q0 107 13 297q10 132 33 193q34 91 136 91q81 0 91 -107q4 -48 4 -94q0 -45 -4 -90q-9 -117 -9 -267q0 -229 35 -369q43 -174 135 -174q41 0 71 39q101 128 101 585q0 105 -7 203.5t-7 197.5q0 76 83 76q77 0 84 -78
q21 -215 21 -417q0 -745 -384 -745z" />
    <glyph glyph-name="uniE306" unicode="&#xe306;" horiz-adv-x="844" 
d="M438 -124q-164 0 -258 232q-76 187 -103 472q-15 152 -15 284q0 252 133 252q126 0 126 -226q0 -91 8 -225q13 -237 46 -409q36 -191 77 -191q13 0 45.5 88.5t63 236.5t50.5 319.5t20 328.5q0 86 89 86q83 0 83 -79q0 -224 -38 -484q-40 -281 -115 -467
q-88 -218 -212 -218z" />
    <glyph glyph-name="uniE307" unicode="&#xe307;" horiz-adv-x="1251" 
d="M868 -124q-153 0 -232 232q-12 34 -22 34t-22 -33q-72 -205 -180 -205q-91 0 -153 63q-108 108 -154 363q-37 202 -37 447q0 126 5 209q9 130 130 130q129 0 129 -144l-1 -293q0 -191 17 -334q28 -241 79 -241q33 0 65 122t45.5 316.5t13.5 396.5q0 72 35.5 108.5
t93.5 36.5q126 0 137 -124q1 -17 1 -47q-4 -239 -4 -339q0 -194 12 -316q18 -182 57 -182q21 0 57.5 144.5t62 368.5t25.5 446q0 89 86 89t86 -82q0 -249 -29 -495q-80 -671 -303 -671z" />
    <glyph glyph-name="uniE308" unicode="&#xe308;" horiz-adv-x="789" 
d="M119 -158q-25 0 -49 14q-46 25 -46 94q0 115 128 370q44 88 87 169q13 24 13 49q0 4 -1 20t-17 44q-178 306 -178 447q0 67 77 67q62 0 95 -57q71 -121 142 -259q12 -22 22 -22q13 0 23 22q32 69 64 121q68 112 117 157q43 38 94 38q37 0 76 -21.5t39 -66.5
q0 -26 -14 -62q-35 -90 -82 -164q-154 -247 -154 -295q0 -27 14 -54q187 -359 187 -464q0 -66 -77 -66q-64 0 -91 59q-147 322 -168 322q-12 0 -26 -33l-127 -281q-67 -148 -148 -148z" />
    <glyph glyph-name="uniE309" unicode="&#xe309;" horiz-adv-x="891" 
d="M393 -123q-170 0 -229 124q-27 57 -27 123q0 103 74 103q51 0 51 -66.5t30.5 -106t81.5 -39.5q162 0 177 315q2 41 2 96q0 23 -7 23q-9 0 -27 -25q-73 -102 -174 -102q-173 0 -238 164q-45 114 -45 308q0 88 11 219q9 103 129 103q129 0 129 -113q0 -7 -8 -81
q-19 -177 -19 -274q0 -189 78 -189q69 0 107 99q45 115 45 244q0 47 -3.5 85.5t-3.5 90.5q0 125 110 125q101 0 135 -91q44 -117 44 -498q0 -123 -17 -245q-25 -175 -107 -272q-101 -120 -299 -120z" />
    <glyph glyph-name="uniE30A" unicode="&#xe30a;" horiz-adv-x="714" 
d="M334 -112q-322 0 -322 146q0 84 183 369q60 93 117 197q170 309 170 368q0 30 -45 30q-178 0 -297 -40q-19 -6 -40 -6q-47 0 -47 40q0 47 72 67q36 10 96 24q91 20 211 20q300 0 300 -144q0 -115 -367 -739q-91 -154 -91 -188q0 -24 55 -24q178 0 297 40q13 5 27 5
q60 0 60 -63q0 -6 -5 -18.5t-27 -22.5q-41 -20 -134 -40.5t-213 -20.5z" />
    </font>
</defs>
</svg>
